Zeros and Ones 2021 1080p AMZN WEBRip DDP5 1 x264-CM


0

0
seeders: 0 leechers: 0 updated: 1 week ago
Added 1 week ago in Movies - Highres Movies
Downloaded 0 time.
Zeros and Ones 2021 1080p AMZN WEBRip DDP5 1 x264-CM
  • Release date: 19 Nov 2021
  • Release year: 2021
  • Runtime: 85 mintues
  • Country: Germany, United States, United Kingdom, Italy
Plot:
An American soldier stationed in Rome with the Vatican blown up, embarks on a hero's journey to uncover and defend against an unknown enemy threatening the entire world.

Available in versions:
Other x264 720p 1080p

Files

RARBG.txt (7.4 GB)
RARBG.txt 0 B
Zeros.and.Ones.2021.1080p.AMZN.WEB-DL.DDP5.1.H264-CM.mkv 7.4 GB

Description

Screens... (click to enlarge):









Infolink -> https://www.imdb.com/title/tt13432484/

Mediainfo


Quote:

Video
ID : 1
Format : AVC
Format/Info : Advanced Video Codec
Format profile : [email protected]
Format settings : CABAC / 4 Ref Frames
Format settings, CABAC : Yes
Format settings, Reference frames : 4 frames
Codec ID : V_MPEG4/ISO/AVC
Duration : 1 h 26 min
Bit rate : 11.5 Mb/s
Width : 1 920 pixels
Height : 800 pixels
Display aspect ratio : 2.40:1
Frame rate mode : Constant
Frame rate : 23.976 (24000/1001) FPS
Color space : YUV
Chroma subsampling : 4:2:0
Bit depth : 8 bits
Scan type : Progressive
Bits/(Pixel*Frame) : 0.313
Stream size : 6.97 GiB (95%)
Default : Yes
Forced : No
Color range : Limited
Color primaries : BT.709
Transfer characteristics : BT.709
Matrix coefficients : BT.709

Audio
ID : 2
Format : E-AC-3
Format/Info : Enhanced AC-3
Commercial name : Dolby Digital Plus
Codec ID : A_EAC3
Duration : 1 h 26 min
Bit rate mode : Constant
Bit rate : 640 kb/s
Channel(s) : 6 channels
Channel layout : L R C LFE Ls Rs
Sampling rate : 48.0 kHz
Frame rate : 31.250 FPS (1536 SPF)
Compression mode : Lossy
Stream size : 395 MiB (5%)
Title : English
Language : English
Service kind : Complete Main
Default : No
Forced : No

Text #1
ID : 3
Format : UTF-8
Codec ID : S_TEXT/UTF8
Codec ID/Info : UTF-8 Plain Text
Duration : 1 h 20 min
Bit rate : 22 b/s
Count of elements : 458
Stream size : 13.5 KiB (0%)
Title : English [SDH]
Language : English
Default : No
Forced : No

Text #2
ID : 4
Format : UTF-8
Codec ID : S_TEXT/UTF8
Codec ID/Info : UTF-8 Plain Text
Duration : 1 h 20 min
Bit rate : 21 b/s
Count of elements : 433
Stream size : 12.6 KiB (0%)
Title : English
Language : English
Default : No
Forced : No

Related Torrents

Trackers

Tracker name
http://tracker.trackerfix.com:80/announce
udp://9.rarbg.me:2800/announce
udp://9.rarbg.to:2890/announce
udp://tracker.thinelephant.org:12760/announce
udp://tracker.tallpenguin.org:15750/announce
udp://tracker.zer0day.to:1337/announce
udp://tracker.leechers-paradise.org:6969/announce
udp://coppersurfer.tk:6969/announce
Torrent hash: BB269CDE12B9487E22A0E05B60CA25777CFA0EF9

0 Comment

Login to post comments