Wolf Hunter 2020 ITA-ENG 1080p BluRay DDP5 1 x264-gattopollo mkv


0

0
seeders: 1 leechers: 12 updated: 1 week ago
Added 1 week ago in Movies - Highres Movies
Downloaded 0 time.
Wolf Hunter 2020 ITA-ENG 1080p BluRay DDP5 1 x264-gattopollo mkv
  • Release date: 18 Dec 2020
  • Release year: 2020
  • Runtime: 93 mintues
  • Country: Canada
Plot:
Joseph and his family live in the remote wilderness as fur trappers, but their tranquility is threatened when they think they are being hunted by the return of a rogue wolf, and Joseph leaves them behind to track it.

Available in versions:
Other x265 720p 1080p

Files

Wolf.Hunter.2020.ITA-ENG.1080p.BluRay.DDP5.1.x264-gattopollo.mkv (12.1 GB)
Wolf.Hunter.2020.ITA-ENG.1080p.BluRay.DDP5.1.x264-gattopollo.mkv 12.1 GB

Description

.:: TITOLO ::.



Wolf.Hunter.2020.ITA-ENG.1080p.BluRay.DDP5.1.x264-gattopollo[/size]







.:: INFO FILM ::.




ANNO DI PRODUZIONE: 2020
GENERE: DRAMMATICO
NAZIONALITÀ: CAN
DURATA (MIN): 93
REGIA: SHAWN LINDEN
IMDb

.:: TRAMA ::.

Joseph e la sua famiglia vivono in una remota landa selvaggia come cacciatori di pelliccia. La loro tranquillità è minacciata il giorno in cui pensano di essere in pericolo a causa di un famelico lupo. Joseph lascia allora la famiglia per mettersi sulle tracce dell'animale.


.:: SCREENSHOTS ::.





.:: INFO TECNICHE ::.

Sorgente Video: Hunter.Hunter.2020.1080p.BluRay.DD+5.1.x264-iFT
Sorgente Audio : AMZN
Risoluzione: 1920x804, x264
Audio 1: ITA E-AC3 6ch @640Kb/s
Audio 2: ENG E-AC3 6ch @1024Kb/s
Sottotitoli: ITA FORCED, ITA FULL, ENG FORCED

.:: MEDIAINFO ::.




Code:


General
Unique ID : 265917931373718421836457007318950302081 (0xC80DEE40ED726153C6C49F524F795181)
Complete name : Wolf.Hunter.2020.ITA-ENG.1080p.BluRay.DDP5.1.x264-gattopollo.mkv
Format : Matroska
Format version : Version 4
File size : 12.1 GiB
Duration : 1 h 33 min
Overall bit rate : 18.7 Mb/s
Movie name : Hunter.Hunter.2020.1080p.BluRay.DD+5.1.x264-iFT
Encoded date : UTC 2022-01-13 18:10:36
Writing application : mkvmerge v64.0.0 ('Willows') 64-bit
Writing library : libebml v1.4.2 + libmatroska v1.6.4

Video
ID : 1
Format : AVC
Format/Info : Advanced Video Codec
Format profile : [email protected]
Format settings : CABAC / 5 Ref Frames
Format settings, CABAC : Yes
Format settings, Reference frames : 5 frames
Codec ID : V_MPEG4/ISO/AVC
Duration : 1 h 33 min
Bit rate : 17.0 Mb/s
Width : 1 920 pixels
Height : 804 pixels
Display aspect ratio : 2.40:1
Frame rate mode : Constant
Frame rate : 23.976 (24000/1001) FPS
Color space : YUV
Chroma subsampling : 4:2:0
Bit depth : 8 bits
Scan type : Progressive
Bits/(Pixel*Frame) : 0.459
Stream size : 11.1 GiB (91%)
Writing library : x264 core 163 r3059+79M ~ Encoded by Mocunaman in Portugal
Encoding settings : cabac=1 / ref=5 / deblock=1:-3:-3 / analyse=0x3:0x113 / me=umh / subme=11 / psy=1 / fade_compensate=0.00 / psy_rd=1.00:0.00 / mixed_ref=1 / me_range=32 / chroma_me=1 / trellis=2 / 8x8dct=1 / cqm=0 / deadzone=21,11 / fast_pskip=0 / chroma_qp_offset=-2 / threads=25 / lookahead_threads=4 / sliced_threads=0 / nr=0 / decimate=0 / interlaced=0 / bluray_compat=0 / constrained_intra=0 / fgo=0 / bframes=8 / b_pyramid=2 / b_adapt=2 / b_bias=0 / direct=3 / weightb=1 / open_gop=0 / weightp=2 / keyint=250 / keyint_min=23 / scenecut=40 / intra_refresh=0 / rc_lookahead=60 / rc=crf / mbtree=0 / crf=16.0000 / qcomp=0.63 / qpmin=0:0:0 / qpmax=69:69:69 / qpstep=4 / vbv_maxrate=62500 / vbv_bufsize=78125 / crf_max=0.0 / nal_hrd=none / filler=0 / ip_ratio=1.30 / pb_ratio=1.20 / aq=3:0.80 / aq-sensitivity=10.00 / aq-factor=1.00:1.00:1.00 / aq2=0 / aq3=0 / zones=9970,23842,crf=15/40694,45278,crf=15/50334,51301,crf=15.5/52834,55090,crf=15/59464,60806,crf=15.5/63270,65734,crf=15.5/87341,91602,crf=15.5/93408,94496,crf=15.5/101864,105080,crf=15/128871,129059,crf=15
Language : English
Default : Yes
Forced : No
Color range : Limited
Color primaries : BT.709
Transfer characteristics : BT.709
Matrix coefficients : BT.709

Audio #1
ID : 2
Format : E-AC-3
Format/Info : Enhanced AC-3
Commercial name : Dolby Digital Plus
Codec ID : A_EAC3
Duration : 1 h 32 min
Bit rate mode : Constant
Bit rate : 640 kb/s
Channel(s) : 6 channels
Channel layout : L R C LFE Ls Rs
Sampling rate : 48.0 kHz
Frame rate : 31.250 FPS (1536 SPF)
Compression mode : Lossy
Delay relative to video : 12 s 12 ms
Stream size : 425 MiB (3%)
Language : Italian
Service kind : Complete Main
Default : Yes
Forced : No

Audio #2
ID : 3
Format : E-AC-3
Format/Info : Enhanced AC-3
Commercial name : Dolby Digital Plus
Codec ID : A_EAC3
Duration : 1 h 33 min
Bit rate mode : Constant
Bit rate : 1 024 kb/s
Channel(s) : 6 channels
Channel layout : L R C LFE Ls Rs
Sampling rate : 48.0 kHz
Frame rate : 31.250 FPS (1536 SPF)
Compression mode : Lossy
Stream size : 682 MiB (5%)
Language : English
Service kind : Complete Main
Default : No
Forced : No

Text #1
ID : 4
Format : UTF-8
Codec ID : S_TEXT/UTF8
Codec ID/Info : UTF-8 Plain Text
Duration : 2 s 958 ms
Bit rate : 27 b/s
Count of elements : 1
Stream size : 10.0 Bytes (0%)
Title : Forced
Language : Italian
Default : Yes
Forced : Yes

Text #2
ID : 5
Format : UTF-8
Codec ID : S_TEXT/UTF8
Codec ID/Info : UTF-8 Plain Text
Duration : 1 h 23 min
Bit rate : 30 b/s
Count of elements : 695
Stream size : 18.6 KiB (0%)
Language : Italian
Default : No
Forced : No

Text #3
ID : 6
Format : UTF-8
Codec ID : S_TEXT/UTF8
Codec ID/Info : UTF-8 Plain Text
Duration : 1 h 26 min
Bit rate : 31 b/s
Count of elements : 815
Stream size : 19.7 KiB (0%)
Title : Forced
Language : English
Default : No
Forced : Yes

Menu
00:00:00.000 : en:Chapter 01
00:08:04.693 : en:Chapter 02
00:16:31.407 : en:Chapter 03
00:23:29.742 : en:Chapter 04
00:30:48.847 : en:Chapter 05
00:38:18.379 : en:Chapter 06
00:45:41.739 : en:Chapter 07
00:54:09.955 : en:Chapter 08
01:00:42.848 : en:Chapter 09
01:08:37.405 : en:Chapter 10
01:16:06.771 : en:Chapter 11
01:22:55.596 : en:Chapter 12








.:: TORRENT LINK ::.



Wolf.Hunter.2020.ITA-ENG.1080p.BluRay.DDP5.1.x264-gattopollo

Related Torrents

Trackers

Tracker name
udp://tracker.opentrackr.org:1337/announce
http://tracker.files.fm:6969/announce
http://open.acgnxtracker.com:80/announce
udp://tracker2.dler.com:80/announce
udp://discord.heihachi.pw:6969/announce
udp://fe.dealclub.de:6969/announce
udp://mail.realliferpg.de:6969/announce
udp://movies.zsw.ca:6969/announce
udp://code2chicken.nl:6969/announce
udp://tracker.0x.tf:6969/announce
udp://tracker.zer0day.to:1337/announce
udp://tracker.leechers-paradise.org:6969/announce
udp://coppersurfer.tk:6969/announce
Torrent hash: 065887261EBF9793F7EE60CDF05DF01BE93D6D00

0 Comment

Login to post comments