Venom Let There Be Carnage (2021) 720p 10bit GPLAY WEBRip x265 HEVC [CAM Hindi AAC 2 0 ~224Kbps + English AAC 2 0] ESub ~ Immortal


0

0
seeders: 5 leechers: 24 updated: 1 week ago
Added 1 week ago in Movies - Bollywood
Downloaded 35 times.
Venom Let There Be Carnage (2021) 720p 10bit GPLAY WEBRip x265 HEVC [CAM Hindi AAC 2 0 ~224Kbps + English AAC 2 0] ESub ~ Immortal
  • Release date: 1 Oct 2021
  • Release year: 2021
  • Runtime: 97 mintues
  • Country: United States, United Kingdom, Canada
  • Keywords: marvel comics, based on comic, superhero, second part, sequel
Plot:
Eddie Brock struggles to adjust to his new life as the host of the alien symbiote Venom, which grants him super-human abilities in order to be a lethal vigilante. Brock attempts to reignite his career by interviewing serial killer Cletus Kasady, who becomes the host of the symbiote Carnage and escapes prison after a failed execution.

Available in versions:
Other Cam x264 480p 720p 1080p 4k

Files

Venom Let There Be Carnage (2021) 720p 10bit GPLAY WEBRip x265 HEVC [CAM Hindi AAC 2.0 ~224Kbps + English AAC 2.0] ESub ~ Immortal.mkv (741.1 MB)
Venom Let There Be Carnage (2021) 720p 10bit GPLAY WEBRip x265 HEVC [CAM Hindi AAC 2.0 ~224Kbps + English AAC 2.0] ESub ~ Immortal.mkv 741.1 MB

Description

Venom Let There Be Carnage (2021) 720p 10bit GPLAY WEBRip x265 HEVC [CAM Hindi AAC 2.0 ~224Kbps + English AAC 2.0] ESub ~ Immortal



Video
ID : 1
Format : HEVC
Format/Info : High Efficiency Video Coding
Format profile : Main [email protected]@Main
Codec ID : V_MPEGH/ISO/HEVC
Duration : 1 h 37 min
Bit rate : 681 kb/s
Width : 1 280 pixels
Height : 690 pixels
Display aspect ratio : 1.85:1
Frame rate mode : Constant
Frame rate : 23.976 (24000/1001) FPS
Color space : YUV
Chroma subsampling : 4:2:0
Bit depth : 10 bits
Bits/(Pixel*Frame) : 0.032
Stream size : 474 MiB (64%)
Title : Encoded By ~ Immortal
Language : English
Default : Yes
Forced : No
Color range : Limited
Color primaries : BT.709
Transfer characteristics : BT.709
Matrix coefficients : BT.709

Audio #1
ID : 2
Format : AAC LC
Format/Info : Advanced Audio Codec Low Complexity
Codec ID : A_AAC-2
Duration : 1 h 37 min
Bit rate : 221 kb/s
Channel(s) : 2 channels
Channel layout : L R
Sampling rate : 48.0 kHz
Frame rate : 46.875 FPS (1024 SPF)
Compression mode : Lossy
Delay relative to video : -10 ms
Stream size : 154 MiB (21%)
Title : CAM Clean Hindi AAC 2.0 224Kbps ~ Immortal
Language : Hindi
Default : Yes
Forced : Yes

Audio #2
ID : 3
Format : AAC LC SBR
Format/Info : Advanced Audio Codec Low Complexity with Spectral Band Replication
Commercial name : HE-AAC
Format settings : Explicit
Codec ID : A_AAC-2
Duration : 1 h 37 min
Bit rate : 159 kb/s
Channel(s) : 2 channels
Channel layout : L R
Sampling rate : 48.0 kHz
Frame rate : 23.438 FPS (2048 SPF)
Compression mode : Lossy
Delay relative to video : -21 ms
Stream size : 110 MiB (15%)
Title : English AAC 2.0 ~ Immortal
Language : English
Default : No
Forced : No

Text
ID : 4
Format : UTF-8
Codec ID : S_TEXT/UTF8
Codec ID/Info : UTF-8 Plain Text
Duration : 1 h 36 min
Bit rate : 76 b/s
Count of elements : 1863
Stream size : 54.0 KiB (0%)
Title : English Sub
Language : English
Default : Yes
Forced : Yes














Quote:

???? Encoding Source :— Venom.Let.There.Be.Carnage.2021.1080p.WEB-DL.DDP5.1.H.264-EVO (6.30 GB) ????
???? Audio Credit :— CAM Clean Hindi Audio By - BadAss (HDHub4U) ????
Note - Audio Have Some Tags Of HDHUb4u

Related Torrents

Trackers

Tracker name
udp://tracker.opentrackr.org:1337/announce
udp://9.rarbg.com:2810/announce
udp://tracker.openbittorrent.com:6969/announce
udp://exodus.desync.com:6969/announce
http://tracker.openbittorrent.com:80/announce
http://openbittorrent.com:80/announce
udp://www.torrent.eu.org:451/announce
udp://vibe.community:6969/announce
udp://u.wwwww.wtf:1/announce
udp://tracker1.bt.moack.co.kr:80/announce
udp://tracker0.ufibox.com:6969/announce
udp://tracker.zerobytes.xyz:1337/announce
udp://tracker.torrent.eu.org:451/announce
udp://tracker.moeking.me:6969/announce
udp://tracker.zer0day.to:1337/announce
udp://tracker.leechers-paradise.org:6969/announce
udp://coppersurfer.tk:6969/announce
Torrent hash: A4768BA5B35EC71ABE2783E242BC4C4D63F56207

0 Comment

Login to post comments