Val 2021 WEBRip x264-ION10


0

0
seeders: 15 leechers: 0 updated: 2 months ago
Added 3 months ago in Movies
Downloaded 129 times.
Val 2021 WEBRip x264-ION10
  • Release date: 6 Aug 2021
  • Release year: 2021
  • Runtime: 109 mintues
  • Country: United States
  • Keywords: produced by subject, documentary produced by subject, home movies, home movie footage, hollywood star
Plot:
Val Kilmer, one of Hollywood's most mercurial actors has been documenting his life and craft through film. He has amassed thousands of hours of footage, from home movies made with his brothers, to time spent in iconic roles for blockbuster films like Top Gun and Batman. This raw and wildly original documentary reveals a life lived to extremes and a heart-filled look at what it means to be an artist.

Available in versions:
x264 720p 1080p

Files

RARBG.txt (1 GB)
RARBG.txt 0 B
RARBG_DO_NOT_MIRROR.exe 102.4 B
2_English.srt 14.2 KB
3_English.srt 126.5 KB
4_Spanish.srt 97.4 KB
5_Portuguese.srt 97.6 KB
Val.2021.WEBRip.x264-ION10.mp4 1 GB

Description







Infolink -> https://www.imdb.com/title/tt14731254/

Mediainfo


Quote:

Video
ID : 1
Format : AVC
Format/Info : Advanced Video Codec
Format profile : [email protected]
Format settings : CABAC / 5 Ref Frames
Format settings, CABAC : Yes
Format settings, Reference frames : 5 frames
Codec ID : avc1
Codec ID/Info : Advanced Video Coding
Duration : 1 h 48 min
Bit rate : 1 100 kb/s
Width : 720 pixels
Height : 400 pixels
Display aspect ratio : 16:9
Frame rate mode : Constant
Frame rate : 23.976 (24000/1001) FPS
Color space : YUV
Chroma subsampling : 4:2:0
Bit depth : 8 bits
Scan type : Progressive
Bits/(Pixel*Frame) : 0.159
Stream size : 856 MiB (81%)
Title : RARBG - Val.2021.WEBRip.x264-ION10
Writing library : x264 core 152 r2851M ba24899
Encoding settings : cabac=1 / ref=5 / deblock=1:-1:-1 / analyse=0x3:0x113 / me=umh / subme=9 / psy=1 / psy_rd=1.00:0.15 / mixed_ref=1 / me_range=16 / chroma_me=1 / trellis=2 / 8x8dct=1 / cqm=0 / deadzone=21,11 / fast_pskip=1 / chroma_qp_offset=-3 / threads=16 / lookahead_threads=1 / sliced_threads=0 / nr=0 / decimate=1 / interlaced=0 / bluray_compat=0 / constrained_intra=0 / bframes=3 / b_pyramid=2 / b_adapt=2 / b_bias=0 / direct=3 / weightb=1 / open_gop=0 / weightp=2 / keyint=250 / keyint_min=23 / scenecut=40 / intra_refresh=0 / rc_lookahead=50 / rc=2pass / mbtree=1 / bitrate=1100 / ratetol=1.0 / qcomp=0.60 / qpmin=0 / qpmax=69 / qpstep=4 / cplxblur=20.0 / qblur=0.5 / ip_ratio=1.40 / aq=1:1.00
Encoded date : UTC 2021-08-06 05:10:36
Tagged date : UTC 2021-08-06 05:10:36
Codec configuration box : avcC

Audio
ID : 2
Format : AAC LC
Format/Info : Advanced Audio Codec Low Complexity
Codec ID : mp4a-40-2
Duration : 1 h 48 min
Bit rate mode : Constant
Bit rate : 256 kb/s
Channel(s) : 2 channels
Channel layout : L R
Sampling rate : 48.0 kHz
Frame rate : 46.875 FPS (1024 SPF)
Compression mode : Lossy
Stream size : 199 MiB (19%)
Title : RARBG - Val.2021.WEBRip.x264-ION10
Language : English
Default : Yes
Alternate group : 1
Encoded date : UTC 2021-08-06 05:10:36
Tagged date : UTC 2021-08-06 05:10:36

Related Torrents

Trackers

Tracker name
http://tracker.trackerfix.com:80/announce
udp://9.rarbg.me:2800/announce
udp://9.rarbg.to:2790/announce
udp://tracker.fatkhoala.org:13750/announce
udp://tracker.thinelephant.org:12720/announce
udp://tracker.zer0day.to:1337/announce
udp://tracker.leechers-paradise.org:6969/announce
udp://coppersurfer.tk:6969/announce
Torrent hash: E84E56D19113915F344F82914A9E4ED0EB7A9836

0 Comment

Login to post comments