The Trip 2021 DUBBED 1080p WEBRip x265-RARBG


0

0
seeders: 0 leechers: 0 updated: 1 month ago
Added 1 month ago in Movies
Downloaded 2 times.
The Trip 2021 DUBBED 1080p WEBRip x265-RARBG
  • Release date: 15 Oct 2021
  • Release year: 2021
  • Runtime: 113 mintues
  • Country: Norway
Plot:
A dysfunctional couple head to a remote cabin to reconnect, but each has intentions to kill the other. Before they can carry out their plans, unexpected visitors arrive and they faced with a greater danger.

Available in versions:
Other x264 720p 1080p

Files

RARBG.txt (1.8 GB)
â–¼ show more 23 files
RARBG.txt 0 B
RARBG_DO_NOT_MIRROR.exe 102.4 B
10_English.srt 79.5 KB
11_English.srt 107.3 KB
12_Spanish.srt 68.8 KB
13_Spanish.srt 67.2 KB
14_Finnish.srt 61.2 KB
15_French.srt 67.8 KB
16_Hebrew.srt 86.3 KB
17_hrv.srt 64.6 KB
18_Hungarian.srt 66 KB
19_Indonesian.srt 67.3 KB
20_Italian.srt 66.1 KB
21_Japanese.srt 70.1 KB
22_Korean.srt 76.3 KB
23_may.srt 68.1 KB
24_Dutch.srt 62.5 KB
25_Polish.srt 65.6 KB
26_Portuguese.srt 67.6 KB
27_Portuguese.srt 66.7 KB
28_Romanian.srt 69.9 KB
29_Russian.srt 83.1 KB
2_Bokmal.srt 19.7 KB
30_Swedish.srt 50.8 KB
31_Thai.srt 112 KB
32_Turkish.srt 66.6 KB
33_ukr.srt 82.1 KB
34_Vietnamese.srt 79.9 KB
35_Chinese.srt 73.7 KB
36_Chinese.srt 73.4 KB
3_English.srt 819.2 B
4_Bokmal.srt 95.9 KB
5_Arabic.srt 95.5 KB
6_Czech.srt 66 KB
7_Danish.srt 67 KB
8_Greek.srt 87.3 KB
9_English.srt 63 KB
The.Trip.2021.DUBBED.1080p.WEBRip.x265-RARBG.mp4 1.8 GB

Description

Screens... (click to enlarge):









Infolink -> https://www.imdb.com/title/tt13109952/

Mediainfo


Quote:

Video
ID : 1
Format : HEVC
Format/Info : High Efficiency Video Coding
Format profile : Main [email protected]@Main
Codec ID : hev1
Codec ID/Info : High Efficiency Video Coding
Duration : 1 h 54 min
Bit rate : 2 004 kb/s
Width : 1 920 pixels
Height : 960 pixels
Display aspect ratio : 2.000
Frame rate mode : Constant
Frame rate : 24.000 FPS
Color space : YUV
Chroma subsampling : 4:2:0
Bit depth : 10 bits
Bits/(Pixel*Frame) : 0.045
Stream size : 1.60 GiB (90%)
Writing library : x265 3.3+4-rarbg-30eb4de83092:[Linux][GCC 8.3.1][64 bit] 10bit
Encoding settings : cpuid=1111039 / frame-threads=4 / wpp / no-pmode / no-pme / no-psnr / no-ssim / log-level=2 / input-csp=1 / input-res=1920x960 / interlace=0 / total-frames=0 / level-idc=0 / high-tier=1 / uhd-bd=0 / ref=4 / no-allow-non-conformance / no-repeat-headers / annexb / no-aud / no-hrd / info / hash=0 / no-temporal-layers / open-gop / min-keyint=24 / keyint=250 / gop-lookahead=0 / bframes=4 / b-adapt=2 / b-pyramid / bframe-bias=0 / rc-lookahead=25 / lookahead-slices=4 / scenecut=40 / hist-scenecut=0 / radl=0 / no-splice / no-intra-refresh / ctu=64 / min-cu-size=8 / rect / no-amp / max-tu-size=32 / tu-inter-depth=1 / tu-intra-depth=1 / limit-tu=0 / rdoq-level=2 / dynamic-rd=0.00 / no-ssim-rd / signhide / no-tskip / nr-intra=0 / nr-inter=0 / no-constrained-intra / strong-intra-smoothing / max-merge=3 / limit-refs=3 / limit-modes / me=3 / subme=3 / merange=57 / temporal-mvp / no-frame-dup / no-hme / weightp / no-weightb / no-analyze-src-pics / deblock=0:0 / no-sao / no-sao-non-deblock / rd=4 / selective-sao=0 / no-early-skip / rskip / no-fast-intra / no-tskip-fast / no-cu-lossless / no-b-intra / no-splitrd-skip / rdpenalty=0 / psy-rd=2.00 / psy-rdoq=1.00 / no-rd-refine / no-lossless / cbqpoffs=0 / crqpoffs=0 / rc=abr / bitrate=2000 / qcomp=0.60 / qpstep=4 / stats-write=0 / stats-read=2 / cplxblur=20.0 / qblur=0.5 / ipratio=1.40 / pbratio=1.30 / aq-mode=3 / aq-strength=1.00 / cutree / zone-count=0 / no-strict-cbr / qg-size=32 / no-rc-grain / qpmax=69 / qpmin=0 / no-const-vbv / sar=1 / overscan=0 / videoformat=5 / range=0 / colorprim=2 / transfer=2 / colormatrix=2 / chromaloc=0 / display-window=0 / cll=0,0 / min-luma=0 / max-luma=1023 / log2-max-poc-lsb=8 / vui-timing-info / vui-hrd-info / slices=1 / no-opt-qp-pps / no-opt-ref-list-length-pps / no-multi-pass-opt-rps / scenecut-bias=0.05 / hist-threshold=0.01 / no-opt-cu-delta-qp / no-aq-motion / no-hdr10 / no-hdr10-opt / no-dhdr10-opt / no-idr-recovery-sei / analysis-reuse-level=0 / analysis-save-reuse-level=0 / analysis-load-reuse-level=0 / scale-factor=0 / refine-intra=0 / refine-inter=0 / refine-mv=1 / refine-ctu-distortion=0 / no-limit-sao / ctu-info=0 / no-lowpass-dct / refine-analysis-type=0 / copy-pic=1 / max-ausize-factor=1.0 / no-dynamic-refine / no-single-sei / no-hevc-aq / no-svt / no-field / qp-adaptation-range=1.00 / no-scenecut-aware-qpconformance-window-offsets / right=0 / bottom=0
Encoded date : UTC 2021-10-15 15:20:34
Tagged date : UTC 2021-10-15 15:20:34
Codec configuration box : hvcC

Audio
ID : 2
Format : AAC LC
Format/Info : Advanced Audio Codec Low Complexity
Codec ID : mp4a-40-2
Duration : 1 h 54 min
Duration_LastFrame : -11 ms
Bit rate mode : Constant
Bit rate : 224 kb/s
Channel(s) : 6 channels
Channel layout : C L R Ls Rs LFE
Sampling rate : 48.0 kHz
Frame rate : 46.875 FPS (1024 SPF)
Compression mode : Lossy
Stream size : 183 MiB (10%)
Language : English
Default : Yes
Alternate group : 1
Encoded date : UTC 2021-10-15 15:20:34
Tagged date : UTC 2021-10-15 15:20:34

Related Torrents

Trackers

Tracker name
http://tracker.trackerfix.com:80/announce
udp://9.rarbg.me:2910/announce
udp://9.rarbg.to:2880/announce
udp://tracker.fatkhoala.org:13800/announce
udp://tracker.thinelephant.org:12780/announce
udp://tracker.zer0day.to:1337/announce
udp://tracker.leechers-paradise.org:6969/announce
udp://coppersurfer.tk:6969/announce
Torrent hash: EB169A6117FBB34B8AE62F66BA6FC2EBA9F71387

0 Comment

Login to post comments