The Suicide Squad 2021 720p BluRay H264 AAC-RARBG


0

0
seeders: 0 leechers: 0 updated: 1 month ago
Added 1 month ago in Movies - Highres Movies
Downloaded 3 times.
The Suicide Squad 2021 720p BluRay H264 AAC-RARBG
  • Release date: 5 Aug 2021
  • Release year: 2021
  • Runtime: 132 mintues
  • Country: United States, Canada, United Kingdom
  • Keywords: superhero, superheroine, based on comic, dc comics, suicide squad
Plot:
Supervillains Harley Quinn, Bloodsport, Peacemaker and a collection of nutty cons at Belle Reve prison join the super-secret, super-shady Task Force X as they are dropped off at the remote, enemy-infused island of Corto Maltese.

Available in versions:
Other x264 x265 720p 1080p 4k

Files

RARBG.txt (1.6 GB)
RARBG.txt 0 B
RARBG_DO_NOT_MIRROR.exe 102.4 B
2_English.srt 93 KB
The.Suicide.Squad.2021.720p.BluRay.H264.AAC-RARBG.mp4 1.6 GB

Description

Screens... (click to enlarge):









Infolink -> https://www.imdb.com/title/tt6334354/

Mediainfo


Quote:

Video
ID : 1
Format : AVC
Format/Info : Advanced Video Codec
Format profile : [email protected]
Format settings : CABAC / 4 Ref Frames
Format settings, CABAC : Yes
Format settings, Reference frames : 4 frames
Codec ID : avc1
Codec ID/Info : Advanced Video Coding
Duration : 2 h 12 min
Bit rate : 1 500 kb/s
Width : 1 280 pixels
Height : 674 pixels
Display aspect ratio : 1.897
Frame rate mode : Constant
Frame rate : 23.976 (23976/1000) FPS
Color space : YUV
Chroma subsampling : 4:2:0
Bit depth : 8 bits
Scan type : Progressive
Bits/(Pixel*Frame) : 0.073
Stream size : 1.38 GiB (87%)
Writing library : x264 core 152 r2851M ba24899
Encoding settings : cabac=1 / ref=4 / deblock=1:-1:-1 / analyse=0x3:0x113 / me=umh / subme=9 / psy=1 / psy_rd=1.00:0.15 / mixed_ref=1 / me_range=24 / chroma_me=1 / trellis=2 / 8x8dct=1 / cqm=0 / deadzone=21,11 / fast_pskip=1 / chroma_qp_offset=-3 / threads=16 / lookahead_threads=4 / sliced_threads=0 / nr=0 / decimate=1 / interlaced=0 / bluray_compat=0 / constrained_intra=0 / bframes=3 / b_pyramid=2 / b_adapt=2 / b_bias=0 / direct=3 / weightb=1 / open_gop=0 / weightp=2 / keyint=250 / keyint_min=25 / scenecut=40 / intra_refresh=0 / rc_lookahead=50 / rc=2pass / mbtree=1 / bitrate=1500 / ratetol=1.0 / qcomp=0.60 / qpmin=0 / qpmax=69 / qpstep=4 / cplxblur=20.0 / qblur=0.5 / vbv_maxrate=31250 / vbv_bufsize=31250 / nal_hrd=none / filler=0 / ip_ratio=1.40 / aq=3:1.00
Encoded date : UTC 2021-10-15 19:17:06
Tagged date : UTC 2021-10-15 19:17:06
Codec configuration box : avcC

Audio
ID : 2
Format : AAC LC
Format/Info : Advanced Audio Codec Low Complexity
Codec ID : mp4a-40-2
Duration : 2 h 12 min
Bit rate mode : Constant
Bit rate : 224 kb/s
Channel(s) : 6 channels
Channel layout : C L R Ls Rs LFE
Sampling rate : 48.0 kHz
Frame rate : 46.875 FPS (1024 SPF)
Compression mode : Lossy
Stream size : 212 MiB (13%)
Language : English
Default : Yes
Alternate group : 1
Encoded date : UTC 2021-10-15 19:17:06
Tagged date : UTC 2021-10-15 19:17:06

Related Torrents

Trackers

Tracker name
http://tracker.trackerfix.com:80/announce
udp://9.rarbg.me:2970/announce
udp://9.rarbg.to:2960/announce
udp://tracker.fatkhoala.org:13770/announce
udp://tracker.tallpenguin.org:15760/announce
udp://tracker.zer0day.to:1337/announce
udp://tracker.leechers-paradise.org:6969/announce
udp://coppersurfer.tk:6969/announce
Torrent hash: CD151A9AAF54D540900C6AFCE871B2B8C624A010

0 Comment

Login to post comments