Super.Ladri-S01E01-13.2021.DLMux.1080p.E-AC3-AC3.ITA.ENG.JAP.SUBS


0

0
seeders: 13 leechers: 2 updated: 18 hours ago
Added 6 days ago in Anime
Downloaded 3 times.
Super.Ladri-S01E01-13.2021.DLMux.1080p.E-AC3-AC3.ITA.ENG.JAP.SUBS

Files

[S1.Ep10] Super ladri - Carmine.mkv (9.4 GB)
[S1.Ep10] Super ladri - Carmine.mkv 765.7 MB
[S1.Ep11] Super ladri - Casino Grand Granite.mkv 690.2 MB
[S1.Ep12] Super ladri - Il Bastardo.mkv 656.5 MB
[S1.Ep13] Super ladri - SUPER LADRI.mkv 771.6 MB
[S1.Ep1] Super ladri - Electro Boy.mkv 727 MB
[S1.Ep2] Super ladri - Kasey.mkv 779.9 MB
[S1.Ep3] Super ladri - Uomo Montagna.mkv 821.6 MB
[S1.Ep4] Super ladri - Il Pretoriano.mkv 735.6 MB
[S1.Ep5] Super ladri - Calore.mkv 693 MB
[S1.Ep6] Super ladri - Il Gladiatore.mkv 836.7 MB
[S1.Ep7] Super ladri - Il Supermax.mkv 709.9 MB
[S1.Ep8] Super ladri - L'Unione della Giustizia.mkv 658.3 MB
[S1.Ep9] Super ladri - Conte Orlok.mkv 781.9 MB

Description

Title



Info - Plot

Titolo originale: Super Crooks
Genere: Animazione, azione e avventura
Attori: Kenjirô Tsuda, Maaya Sakamoto, Jun'ichi Suwabe
Stagione: 1
Episodi: 13
Nazione: Stati Uniti d'America

Johnny Bolt recluta un gruppo di improbabili supercattivi per un ultimo colpo ai danni di uno spietato boss del crimine dotato di superpoteri. Cosa può andare male?

Images





Report



Code:

General
Unique ID : 34479223790079967274706968635934739577 (0x19F074FB0BB74596350F4B1C02A38C79)
Complete name : D:\Kabino\FTP\super\Super ladri - Stagione 1 (2021) [Completa] DLMux 1080p E-AC3+AC3 ITA ENG JAP SUBS\[S1.Ep1] Super ladri - Electro Boy.mkv
Format : Matroska
Format version : Version 4
File size : 727 MiB
Duration : 24 min 33 s
Overall bit rate : 4 138 kb/s
Encoded date : UTC 2021-11-25 09:03:01
Writing application : mkvmerge v52.0.0 ('Secret For The Mad') 64-bit
Writing library : libebml v1.4.1 + libmatroska v1.6.2

Video
ID : 1
Format : AVC
Format/Info : Advanced Video Codec
Format profile : [email protected]
Format settings : CABAC / 3 Ref Frames
Format settings, CABAC : Yes
Format settings, Reference frames : 3 frames
Codec ID : V_MPEG4/ISO/AVC
Duration : 24 min 33 s
Bit rate : 1 575 kb/s
Width : 1 920 pixels
Height : 1 080 pixels
Display aspect ratio : 16:9
Frame rate mode : Constant
Frame rate : 23.976 (24000/1001) FPS
Color space : YUV
Chroma subsampling : 4:2:0
Bit depth : 8 bits
Scan type : Progressive
Bits/(Pixel*Frame) : 0.032
Stream size : 277 MiB (38%)
Default : Yes
Forced : No

Audio #1
ID : 2
Format : AC-3
Format/Info : Audio Coding 3
Commercial name : Dolby Digital
Codec ID : A_AC3
Duration : 24 min 33 s
Bit rate mode : Constant
Bit rate : 640 kb/s
Channel(s) : 6 channels
Channel layout : L R C LFE Ls Rs
Sampling rate : 48.0 kHz
Frame rate : 31.250 FPS (1536 SPF)
Compression mode : Lossy
Delay relative to video : -83 ms
Stream size : 112 MiB (15%)
Title : AC3 5.1 @ DOLBY
Language : Italian
Service kind : Complete Main
Default : Yes
Forced : No

Audio #2
ID : 3
Format : E-AC-3
Format/Info : Enhanced AC-3
Commercial name : Dolby Digital Plus
Codec ID : A_EAC3
Duration : 24 min 33 s
Bit rate mode : Constant
Bit rate : 640 kb/s
Channel(s) : 6 channels
Channel layout : L R C LFE Ls Rs
Sampling rate : 48.0 kHz
Frame rate : 31.250 FPS (1536 SPF)
Compression mode : Lossy
Delay relative to video : -83 ms
Stream size : 112 MiB (15%)
Title : E-AC3 5.1 @ DOLBY
Language : English
Service kind : Complete Main
Default : No
Forced : No

Audio #3
ID : 4
Format : E-AC-3
Format/Info : Enhanced AC-3
Commercial name : Dolby Digital Plus
Codec ID : A_EAC3
Duration : 24 min 33 s
Bit rate mode : Constant
Bit rate : 640 kb/s
Channel(s) : 6 channels
Channel layout : L R C LFE Ls Rs
Sampling rate : 48.0 kHz
Frame rate : 31.250 FPS (1536 SPF)
Compression mode : Lossy
Delay relative to video : -83 ms
Stream size : 112 MiB (15%)
Title : E-AC3 5.1 @ DOLBY
Language : Italian
Service kind : Complete Main
Default : No
Forced : No

Audio #4
ID : 5
Format : E-AC-3
Format/Info : Enhanced AC-3
Commercial name : Dolby Digital Plus
Codec ID : A_EAC3
Duration : 24 min 33 s
Bit rate mode : Constant
Bit rate : 640 kb/s
Channel(s) : 6 channels
Channel layout : L R C LFE Ls Rs
Sampling rate : 48.0 kHz
Frame rate : 31.250 FPS (1536 SPF)
Compression mode : Lossy
Delay relative to video : -83 ms
Stream size : 112 MiB (15%)
Title : E-AC3 5.1 @ DOLBY
Language : Japanese
Service kind : Complete Main
Default : No
Forced : No

Text #1
ID : 6
Format : UTF-8
Codec ID : S_TEXT/UTF8
Codec ID/Info : UTF-8 Plain Text
Duration : 23 min 40 s
Bit rate : 1 b/s
Count of elements : 16
Stream size : 256 Bytes (0%)
Title : Forced
Language : Italian
Default : Yes
Forced : No

Text #2
ID : 7
Format : UTF-8
Codec ID : S_TEXT/UTF8
Codec ID/Info : UTF-8 Plain Text
Duration : 23 min 40 s
Bit rate : 46 b/s
Count of elements : 308
Stream size : 8.14 KiB (0%)
Language : Italian
Default : No
Forced : No

Text #3
ID : 8
Format : UTF-8
Codec ID : S_TEXT/UTF8
Codec ID/Info : UTF-8 Plain Text
Duration : 23 min 14 s
Bit rate : 47 b/s
Count of elements : 289
Stream size : 8.02 KiB (0%)
Language : English
Default : No




Good Download

Trackers

Tracker name
udp://tracker.opentrackr.org:1337/announce
udp://tracker.torrent.eu.org:451/announce
http://tracker.gbitt.info:80/announce
http://tracker2.dler.org:80/announce
http://tracker.bt4g.com:2095/announce
udp://tracker.coppersurfer.tk:6969/announce
udp://tracker.leechers-paradise.org:6969/announce
udp://9.rarbg.me:2790/announce
udp://9.rarbg.to:2730/announce
udp://9.rarbg.com:2710/announce
http://t.nyaatracker.com:80/announce
udp://tracker.zer0day.to:1337/announce
udp://tracker.leechers-paradise.org:6969/announce
udp://coppersurfer.tk:6969/announce
Torrent hash: 0BA09F0FF5B41E37187E550878E6D08CF5BE1F89

0 Comment

Login to post comments