Spencer 2021 WEBRip XviD MP3-XVID


0

0
seeders: 0 leechers: 0 updated: 6 days ago
Added 6 days ago in Movies
Downloaded 4 times.
Spencer 2021 WEBRip XviD MP3-XVID
  • Release date: 5 Nov 2021
  • Release year: 2021
  • Runtime: 111 mintues
  • Country: Germany, Chile, United Kingdom, United States
  • Keywords: house, based on true story, princess, christmas, holiday
Plot:
During her Christmas holidays with the royal family at the Sandringham estate in Norfolk, England, Diana Spencer, struggling with mental health problems, decides to end her decade-long marriage to Prince Charles.

Available in versions:
Other x264 720p 1080p 4k

Files

RARBG.txt (1.5 GB)
RARBG.txt 0 B
RARBG_DO_NOT_MIRROR.exe 102.4 B
Spencer.2021.WEBRip.XviD.MP3-XVID.avi 1.5 GB
2_English.srt 70.2 KB
3_English.srt 94.2 KB

Description

Screens... (click to enlarge):









Infolink -> https://www.imdb.com/title/tt12536294/

Mediainfo


Quote:

Video
ID : 0
Format : MPEG-4 Visual
Format profile : [email protected]
Format settings, BVOP : No
Format settings, QPel : No
Format settings, GMC : No warppoints
Format settings, Matrix : Default (H.263)
Codec ID : XVID
Codec ID/Hint : XviD
Duration : 1 h 56 min
Bit rate : 1 600 kb/s
Width : 720 pixels
Height : 434 pixels
Display aspect ratio : 5:3
Frame rate : 23.976 (24000/1001) FPS
Color space : YUV
Chroma subsampling : 4:2:0
Bit depth : 8 bits
Scan type : Progressive
Compression mode : Lossy
Bits/(Pixel*Frame) : 0.214
Stream size : 1.30 GiB (89%)
Title : RARBG - Spencer.2021.WEBRip.XviD.MP3-XVID
Writing library : Lavc58.35.100

Audio
ID : 1
Format : MPEG Audio
Format version : Version 1
Format profile : Layer 3
Format settings : Joint stereo / MS Stereo
Codec ID : 55
Codec ID/Hint : MP3
Duration : 1 h 56 min
Bit rate mode : Constant
Bit rate : 192 kb/s
Channel(s) : 2 channels
Sampling rate : 48.0 kHz
Compression mode : Lossy
Stream size : 160 MiB (11%)
Alignment : Aligned on interleaves
Interleave, duration : 24 ms (0.58 video frame)
Interleave, preload duration : 24 ms
Title : RARBG - Spencer.2021.WEBRip.XviD.MP3-XVID
Writing library : LAME3.99.5ªªª

Related Torrents

Trackers

Tracker name
http://tracker.trackerfix.com:80/announce
udp://9.rarbg.me:2970/announce
udp://9.rarbg.to:2780/announce
udp://tracker.slowcheetah.org:14760/announce
udp://tracker.tallpenguin.org:15790/announce
udp://tracker.zer0day.to:1337/announce
udp://tracker.leechers-paradise.org:6969/announce
udp://coppersurfer.tk:6969/announce
Torrent hash: 48F26FB53ED5836AC9994911F1E7E3D5BD67FE51

0 Comment

Login to post comments