Spencer 2021 2160p WEB-DL x265 10bit HDR DDP5 1-NOGRP


0

0
seeders: 0 leechers: 0 updated: 4 days ago
Added 1 week ago in Movies
Downloaded 5 times.
Spencer 2021 2160p WEB-DL x265 10bit HDR DDP5 1-NOGRP
  • Release date: 5 Nov 2021
  • Release year: 2021
  • Runtime: 111 mintues
  • Country: Germany, Chile, United Kingdom, United States
  • Keywords: house, based on true story, princess, christmas, holiday
Plot:
During her Christmas holidays with the royal family at the Sandringham estate in Norfolk, England, Diana Spencer, struggling with mental health problems, decides to end her decade-long marriage to Prince Charles.

Available in versions:
Other x264 720p 1080p 4k

Files

RARBG.txt (19.9 GB)
RARBG.txt 0 B
Spencer.2021.2160p.WEB-DL.x265.10bit.HDR.DDP5.1-NOGRP.mkv 19.9 GB

Description

Screens... :





Infolink -> https://www.imdb.com/title/tt12536294/

Mediainfo


Quote:

Video
ID : 1
Format : HEVC
Format/Info : High Efficiency Video Coding
Format profile : Main [email protected]@High
HDR format : SMPTE ST 2086, HDR10 compatible
Codec ID : V_MPEGH/ISO/HEVC
Duration : 1 h 56 min
Bit rate : 23.8 Mb/s
Width : 3 600 pixels
Height : 2 156 pixels
Display aspect ratio : 5:3
Frame rate mode : Constant
Frame rate : 23.976 FPS
Color space : YUV
Chroma subsampling : 4:2:0 (Type 2)
Bit depth : 10 bits
Bits/(Pixel*Frame) : 0.128
Stream size : 19.4 GiB (97%)
Default : Yes
Forced : No
Color range : Limited
Color primaries : BT.2020
Transfer characteristics : PQ
Matrix coefficients : BT.2020 non-constant
Mastering display color primaries : Display P3
Mastering display luminance : min: 0.0050 cd/m2, max: 1000 cd/m2
Maximum Content Light Level : 187 cd/m2
Maximum Frame-Average Light Level : 72 cd/m2

Audio
ID : 2
Format : E-AC-3
Format/Info : Enhanced AC-3
Commercial name : Dolby Digital Plus
Codec ID : A_EAC3
Duration : 1 h 56 min
Bit rate mode : Constant
Bit rate : 640 kb/s
Channel(s) : 6 channels
Channel layout : L R C LFE Ls Rs
Sampling rate : 48.0 kHz
Frame rate : 31.250 FPS (1536 SPF)
Compression mode : Lossy
Stream size : 534 MiB (3%)
Language : English
Service kind : Complete Main
Default : Yes
Forced : No

Text #1
ID : 3
Format : UTF-8
Codec ID : S_TEXT/UTF8
Codec ID/Info : UTF-8 Plain Text
Duration : 1 h 53 min
Bit rate : 37 b/s
Count of elements : 1099
Stream size : 31.6 KiB (0%)
Language : English
Default : Yes
Forced : No

Text #2
ID : 4
Format : UTF-8
Codec ID : S_TEXT/UTF8
Codec ID/Info : UTF-8 Plain Text
Duration : 1 h 56 min
Bit rate : 49 b/s
Count of elements : 1456
Stream size : 42.6 KiB (0%)
Title : SDH
Language : English
Default : No
Forced : No

Related Torrents

Trackers

Tracker name
http://tracker.trackerfix.com:80/announce
udp://9.rarbg.me:2850/announce
udp://9.rarbg.to:2800/announce
udp://tracker.thinelephant.org:12750/announce
udp://tracker.fatkhoala.org:13760/announce
udp://tracker.zer0day.to:1337/announce
udp://tracker.leechers-paradise.org:6969/announce
udp://coppersurfer.tk:6969/announce
Torrent hash: 779CA212C879C360CBF5CABEF2109BA044F2EA35

0 Comment

Login to post comments