Spencer 2021 1080p AMZN WEBRip DDP5 1 x264-TEPES


0

0
seeders: 0 leechers: 0 updated: 5 days ago
Added 6 days ago in Movies - Highres Movies
Downloaded 1 time.
Spencer 2021 1080p AMZN WEBRip DDP5 1 x264-TEPES
  • Release date: 5 Nov 2021
  • Release year: 2021
  • Runtime: 111 mintues
  • Country: Germany, Chile, United Kingdom, United States
  • Keywords: house, based on true story, princess, christmas, holiday
Plot:
During her Christmas holidays with the royal family at the Sandringham estate in Norfolk, England, Diana Spencer, struggling with mental health problems, decides to end her decade-long marriage to Prince Charles.

Available in versions:
Other x264 720p 1080p 4k

Files

RARBG.txt (8.1 GB)
RARBG.txt 0 B
Spencer.2021.1080p.AMZN.WEB-DL.DDP5.1.H.264-TEPES.mkv 8.1 GB

Description

Screens... (click to enlarge):









Infolink -> https://www.imdb.com/title/tt12536294/

Mediainfo


Quote:

Video
ID : 1
Format : AVC
Format/Info : Advanced Video Codec
Format profile : [email protected]
Format settings : CABAC / 4 Ref Frames
Format settings, CABAC : Yes
Format settings, Reference frames : 4 frames
Codec ID : V_MPEG4/ISO/AVC
Duration : 1 h 56 min
Bit rate mode : Constant
Bit rate : 9 256 kb/s
Nominal bit rate : 10 000 kb/s
Width : 1 792 pixels
Height : 1 080 pixels
Display aspect ratio : 5:3
Frame rate mode : Constant
Frame rate : 23.976 (24000/1001) FPS
Color space : YUV
Chroma subsampling : 4:2:0
Bit depth : 8 bits
Scan type : Progressive
Bits/(Pixel*Frame) : 0.199
Stream size : 7.55 GiB (94%)
Default : Yes
Forced : No
Color range : Limited
Color primaries : BT.709
Transfer characteristics : BT.709
Matrix coefficients : BT.709

Audio
ID : 2
Format : E-AC-3
Format/Info : Enhanced AC-3
Commercial name : Dolby Digital Plus
Codec ID : A_EAC3
Duration : 1 h 56 min
Bit rate mode : Constant
Bit rate : 640 kb/s
Channel(s) : 6 channels
Channel layout : L R C LFE Ls Rs
Sampling rate : 48.0 kHz
Frame rate : 31.250 FPS (1536 SPF)
Compression mode : Lossy
Stream size : 534 MiB (6%)
Language : English
Service kind : Complete Main
Default : Yes
Forced : No

Text #1
ID : 3
Format : UTF-8
Codec ID : S_TEXT/UTF8
Codec ID/Info : UTF-8 Plain Text
Duration : 1 h 53 min
Bit rate : 37 b/s
Count of elements : 1099
Stream size : 31.6 KiB (0%)
Language : English
Default : No
Forced : No

Text #2
ID : 4
Format : UTF-8
Codec ID : S_TEXT/UTF8
Codec ID/Info : UTF-8 Plain Text
Duration : 1 h 56 min
Bit rate : 49 b/s
Count of elements : 1456
Stream size : 42.6 KiB (0%)
Title : SDH
Language : English
Default : No
Forced : No

Related Torrents

Trackers

Tracker name
http://tracker.trackerfix.com:80/announce
udp://9.rarbg.me:2940/announce
udp://9.rarbg.to:2730/announce
udp://tracker.tallpenguin.org:15760/announce
udp://tracker.thinelephant.org:12720/announce
udp://tracker.zer0day.to:1337/announce
udp://tracker.leechers-paradise.org:6969/announce
udp://coppersurfer.tk:6969/announce
Torrent hash: 2003F410200080D9157AA4C919CB51EA57EA4C01

0 Comment

Login to post comments