Sonic the Hedgehog 2 2022 WEBRip x264-SHITBOX2


0

0
seeders: 548 leechers: 43 updated: 4 months ago
Added 5 months ago in Movies
Downloaded 6 times.
Sonic the Hedgehog 2 2022 WEBRip x264-SHITBOX2
  • Release date: 8 Apr 2022
  • Release year: 2022
  • Runtime: 122 mintues
  • Country: United States, Japan
  • Keywords: sequel, anthropomorphic animal, live action adaptation, human animal friendship, anthropomorphic hedgehog
Plot:
After settling in Green Hills, Sonic is ready for more freedom, and Tom and Maddie agree to leave him home while they go on vacation. But, no sooner are they gone, when Dr. Robotnik comes back, this time with a new partner, Knuckles, in search for an emerald that has the power to both build and destroy civilizations. Sonic teams up with his own sidekick, Tails, and together they embark on a journey to find the emerald before it falls into the wrong hands. Being directed by Jeff Fowler, and starring Jim Carrey, James Marsden, and Ben Schwartz.

Available in versions:
Other WEB-DL WEBRip x264 x265 480p 720p 1080p 4k

Files

Sonic the Hedgehog 2 2022 WEBRip x264-SHITBOX2 (Size: 1.2 GB)
RARBG.txt 0 B
Sonic.the.Hedgehog.2.2022.WEBRip.x264-SHITBOX2.mp4 1.2 GB

Description

Screens... (click to enlarge):









Infolink -> https://www.imdb.com/title/tt12412888/

Mediainfo


Quote:

Video
ID : 1
Format : AVC
Format/Info : Advanced Video Codec
Format profile : [email protected]
Format settings : CABAC / 5 Ref Frames
Format settings, CABAC : Yes
Format settings, Reference frames : 5 frames
Codec ID : avc1
Codec ID/Info : Advanced Video Coding
Duration : 2 h 2 min
Bit rate : 1 100 kb/s
Width : 720 pixels
Height : 302 pixels
Display aspect ratio : 2.40:1
Original display aspect ratio : 2.40:1
Frame rate mode : Constant
Frame rate : 23.976 (24000/1001) FPS
Color space : YUV
Chroma subsampling : 4:2:0
Bit depth : 8 bits
Scan type : Progressive
Bits/(Pixel*Frame) : 0.211
Stream size : 964 MiB (81%)
Title : Sonic.the.Hedgehog.2.2022.WEBRip.x264-SHITBOX2
Writing library : x264 core 148 r2795M aaa9aa8
Encoding settings : cabac=1 / ref=5 / deblock=1:-1:-1 / analyse=0x3:0x113 / me=umh / subme=9 / psy=1 / psy_rd=1.00:0.15 / mixed_ref=1 / me_range=16 / chroma_me=1 / trellis=2 / 8x8dct=1 / cqm=0 / deadzone=21,11 / fast_pskip=1 / chroma_qp_offset=-3 / threads=24 / lookahead_threads=2 / sliced_threads=0 / nr=0 / decimate=1 / interlaced=0 / bluray_compat=0 / constrained_intra=0 / bframes=3 / b_pyramid=2 / b_adapt=2 / b_bias=0 / direct=3 / weightb=1 / open_gop=0 / weightp=2 / keyint=250 / keyint_min=23 / scenecut=40 / intra_refresh=0 / rc_lookahead=50 / rc=2pass / mbtree=1 / bitrate=1100 / ratetol=1.0 / qcomp=0.60 / qpmin=0 / qpmax=69 / qpstep=4 / cplxblur=20.0 / qblur=0.5 / ip_ratio=1.40 / aq=1:1.00
Codec configuration box : avcC

Audio
ID : 2
Format : AAC LC
Format/Info : Advanced Audio Codec Low Complexity
Codec ID : mp4a-40-2
Duration : 2 h 2 min
Bit rate mode : Constant
Bit rate : 256 kb/s
Channel(s) : 2 channels
Channel layout : L R
Sampling rate : 44.1 kHz
Frame rate : 43.066 FPS (1024 SPF)
Compression mode : Lossy
Stream size : 224 MiB (19%)
Title : Sonic.the.Hedgehog.2.2022.WEBRip.x264-SHITBOX2
Language : English
Default : Yes
Alternate group : 1

Related Torrents

Trackers

Tracker name
http://tracker.trackerfix.com:80/announce
udp://9.rarbg.me:2780/announce
udp://9.rarbg.to:2830/announce
udp://tracker.tallpenguin.org:15800/announce
udp://tracker.slowcheetah.org:14720/announce
udp://tracker.opentrackr.org:1337/announce
http://tracker.openbittorrent.com:80/announce
udp://opentracker.i2p.rocks:6969/announce
udp://tracker.internetwarriors.net:1337/announce
udp://tracker.leechers-paradise.org:6969/announce
udp://coppersurfer.tk:6969/announce
udp://tracker.zer0day.to:1337/announce
Torrent hash: 3FC6A2809648CC6AB86D492C47BC3E6FA8B33414

0 Comment

Login to post comments