Sonic the Hedgehog 2 2022 1080p WEBRip x265


0

0
seeders: 234 leechers: 28 updated: 4 months ago
Added 4 months ago in Movies
Downloaded 54 times.
Sonic the Hedgehog 2 2022 1080p WEBRip x265
  • Release date: 8 Apr 2022
  • Release year: 2022
  • Runtime: 122 mintues
  • Country: United States, Japan
  • Keywords: sequel, anthropomorphic animal, live action adaptation, human animal friendship, anthropomorphic hedgehog
Plot:
After settling in Green Hills, Sonic is ready for more freedom, and Tom and Maddie agree to leave him home while they go on vacation. But, no sooner are they gone, when Dr. Robotnik comes back, this time with a new partner, Knuckles, in search for an emerald that has the power to both build and destroy civilizations. Sonic teams up with his own sidekick, Tails, and together they embark on a journey to find the emerald before it falls into the wrong hands. Being directed by Jeff Fowler, and starring Jim Carrey, James Marsden, and Ben Schwartz.

Available in versions:
Other WEB-DL WEBRip x264 x265 480p 720p 1080p 4k

Files

Sonic the Hedgehog 2 2022 1080p WEBRip x265 (Size: 1.9 GB)
RARBG.txt 0 B
RARBG_DO_NOT_MIRROR.exe 102.4 B
Sonic.the.Hedgehog.2.2022.1080p.WEBRip.x265-RARBG.mp4 1.9 GB
2_English.srt 409.6 B
3_English.srt 108 KB
4_English.srt 126.9 KB
5_Korean.srt 92.3 KB
6_Chinese.srt 90.2 KB

Description

Screens... :





Infolink -> https://www.imdb.com/title/tt12412888/

Mediainfo


Quote:

Video
ID : 1
Format : HEVC
Format/Info : High Efficiency Video Coding
Format profile : Main [email protected]@Main
Codec ID : hev1
Codec ID/Info : High Efficiency Video Coding
Duration : 2 h 2 min
Bit rate : 1 999 kb/s
Width : 1 914 pixels
Height : 792 pixels
Display aspect ratio : 2.40:1
Frame rate mode : Constant
Frame rate : 23.976 (24000/1001) FPS
Color space : YUV
Chroma subsampling : 4:2:0
Bit depth : 10 bits
Bits/(Pixel*Frame) : 0.055
Stream size : 1.71 GiB (90%)
Writing library : x265 3.3+4-rarbg-30eb4de83092:[Linux][GCC 8.3.1][64 bit] 10bit
Encoding settings : cpuid=1111039 / frame-threads=4 / wpp / no-pmode / no-pme / no-psnr / no-ssim / log-level=2 / input-csp=1 / input-res=1914x792 / interlace=0 / total-frames=0 / level-idc=0 / high-tier=1 / uhd-bd=0 / ref=4 / no-allow-non-conformance / no-repeat-headers / annexb / no-aud / no-hrd / info / hash=0 / no-temporal-layers / open-gop / min-keyint=23 / keyint=250 / gop-lookahead=0 / bframes=4 / b-adapt=2 / b-pyramid / bframe-bias=0 / rc-lookahead=25 / lookahead-slices=4 / scenecut=40 / hist-scenecut=0 / radl=0 / no-splice / no-intra-refresh / ctu=64 / min-cu-size=8 / rect / no-amp / max-tu-size=32 / tu-inter-depth=1 / tu-intra-depth=1 / limit-tu=0 / rdoq-level=2 / dynamic-rd=0.00 / no-ssim-rd / signhide / no-tskip / nr-intra=0 / nr-inter=0 / no-constrained-intra / strong-intra-smoothing / max-merge=3 / limit-refs=3 / limit-modes / me=3 / subme=3 / merange=57 / temporal-mvp / no-frame-dup / no-hme / weightp / no-weightb / no-analyze-src-pics / deblock=0:0 / no-sao / no-sao-non-deblock / rd=4 / selective-sao=0 / no-early-skip / rskip / no-fast-intra / no-tskip-fast / no-cu-lossless / no-b-intra / no-splitrd-skip / rdpenalty=0 / psy-rd=2.00 / psy-rdoq=1.00 / no-rd-refine / no-lossless / cbqpoffs=0 / crqpoffs=0 / rc=abr / bitrate=2000 / qcomp=0.60 / qpstep=4 / stats-write=0 / stats-read=2 / cplxblur=20.0 / qblur=0.5 / ipratio=1.40 / pbratio=1.30 / aq-mode=3 / aq-strength=1.00 / cutree / zone-count=0 / no-strict-cbr / qg-size=32 / no-rc-grain / qpmax=69 / qpmin=0 / no-const-vbv / sar=1 / overscan=0 / videoformat=5 / range=0 / colorprim=2 / transfer=2 / colormatrix=2 / chromaloc=0 / display-window=0 / cll=0,0 / min-luma=0 / max-luma=1023 / log2-max-poc-lsb=8 / vui-timing-info / vui-hrd-info / slices=1 / no-opt-qp-pps / no-opt-ref-list-length-pps / no-multi-pass-opt-rps / scenecut-bias=0.05 / hist-threshold=0.01 / no-opt-cu-delta-qp / no-aq-motion / no-hdr10 / no-hdr10-opt / no-dhdr10-opt / no-idr-recovery-sei / analysis-reuse-level=0 / analysis-save-reuse-level=0 / analysis-load-reuse-level=0 / scale-factor=0 / refine-intra=0 / refine-inter=0 / refine-mv=1 / refine-ctu-distortion=0 / no-limit-sao / ctu-info=0 / no-lowpass-dct / refine-analysis-type=0 / copy-pic=1 / max-ausize-factor=1.0 / no-dynamic-refine / no-single-sei / no-hevc-aq / no-svt / no-field / qp-adaptation-range=1.00 / no-scenecut-aware-qpconformance-window-offsets / right=0 / bottom=0
Encoded date : UTC 2022-05-17 19:16:23
Tagged date : UTC 2022-05-17 19:16:23
Codec configuration box : hvcC

Audio
ID : 2
Format : AAC LC
Format/Info : Advanced Audio Codec Low Complexity
Codec ID : mp4a-40-2
Duration : 2 h 2 min
Duration_LastFrame : -1 ms
Bit rate mode : Constant
Bit rate : 224 kb/s
Channel(s) : 6 channels
Channel layout : C L R Ls Rs LFE
Sampling rate : 48.0 kHz
Frame rate : 46.875 FPS (1024 SPF)
Compression mode : Lossy
Stream size : 196 MiB (10%)
Language : English
Default : Yes
Alternate group : 1
Encoded date : UTC 2022-05-17 19:16:23
Tagged date : UTC 2022-05-17 19:16:23

Related Torrents

Trackers

Tracker name
http://tracker.trackerfix.com:80/announce
udp://9.rarbg.me:2720/announce
udp://9.rarbg.to:2790/announce
udp://tracker.slowcheetah.org:14780/announce
udp://tracker.tallpenguin.org:15760/announce
udp://tracker.opentrackr.org:1337/announce
http://tracker.openbittorrent.com:80/announce
udp://opentracker.i2p.rocks:6969/announce
udp://tracker.internetwarriors.net:1337/announce
udp://tracker.leechers-paradise.org:6969/announce
udp://coppersurfer.tk:6969/announce
udp://tracker.zer0day.to:1337/announce
Torrent hash: 94C6000560DFA539E83928144989C0C7C1E9CB85

0 Comment

Login to post comments