Sonic the Hedgehog 2 2022 1080p WEBRip AAC2 0 x264-SHITBOX2


0

0
seeders: 1133 leechers: 280 updated: 1 week ago
Added 2 weeks ago in Movies - Highres Movies
Downloaded 31 times.
Sonic the Hedgehog 2 2022 1080p WEBRip AAC2 0 x264-SHITBOX2
  • Release date: 8 Apr 2022
  • Release year: 2022
  • Runtime: 122 mintues
  • Country: United States, Japan
  • Keywords: sequel, anthropomorphic animal, live action adaptation, human animal friendship, anthropomorphic hedgehog
Plot:
After settling in Green Hills, Sonic is ready for more freedom, and Tom and Maddie agree to leave him home while they go on vacation. But, no sooner are they gone, when Dr. Robotnik comes back, this time with a new partner, Knuckles, in search for an emerald that has the power to both build and destroy civilizations. Sonic teams up with his own sidekick, Tails, and together they embark on a journey to find the emerald before it falls into the wrong hands. Being directed by Jeff Fowler, and starring Jim Carrey, James Marsden, and Ben Schwartz.

Available in versions:
Other x264 720p 1080p 4k

Files

Sonic the Hedgehog 2 2022 1080p WEBRip AAC2 0 x264-SHITBOX2 (Size: 5.7 GB)
RARBG.txt 0 B
Sonic.the.Hedgehog.2.2022.1080p.WEBRip.AAC2.0.x264-SHITBOX2.mp4 5.7 GB

Description

Screens... (click to enlarge):








Infolink -> https://www.imdb.com/title/tt12412888/

Mediainfo


Quote:

Video
ID : 1
Format : AVC
Format/Info : Advanced Video Codec
Format profile : [email protected]
Format settings : CABAC / 2 Ref Frames
Format settings, CABAC : Yes
Format settings, Reference frames : 2 frames
Codec ID : avc1
Codec ID/Info : Advanced Video Coding
Duration : 2 h 2 min
Bit rate : 6 353 kb/s
Width : 1 920 pixels
Height : 1 080 pixels
Display aspect ratio : 16:9
Frame rate mode : Constant
Frame rate : 23.976 (23976/1000) FPS
Color space : YUV
Chroma subsampling : 4:2:0
Bit depth : 8 bits
Scan type : Progressive
Bits/(Pixel*Frame) : 0.128
Stream size : 5.44 GiB (96%)
Title : Sonic.the.Hedgehog.2.2022.1080p.WEBRip.AAC2.0.x264-SHITBOX2
Writing library : x264 core 155 r2901 7d0ff22
Color range : Limited
Color primaries : BT.709
Transfer characteristics : BT.709
Matrix coefficients : BT.709
Codec configuration box : avcC

Audio
ID : 2
Format : AAC LC
Format/Info : Advanced Audio Codec Low Complexity
Codec ID : mp4a-40-2
Duration : 2 h 2 min
Bit rate mode : Constant
Bit rate : 256 kb/s
Channel(s) : 2 channels
Channel layout : L R
Sampling rate : 44.1 kHz
Frame rate : 43.066 FPS (1024 SPF)
Compression mode : Lossy
Stream size : 224 MiB (4%)
Title : Sonic.the.Hedgehog.2.2022.1080p.WEBRip.AAC2.0.x264-SHITBOX2
Default : Yes
Alternate group : 1

Related Torrents

Trackers

Tracker name
http://tracker.trackerfix.com:80/announce
udp://9.rarbg.me:2870/announce
udp://9.rarbg.to:2940/announce
udp://tracker.fatkhoala.org:13780/announce
udp://tracker.slowcheetah.org:14790/announce
udp://tracker.opentrackr.org:1337/announce
http://tracker.openbittorrent.com:80/announce
udp://opentracker.i2p.rocks:6969/announce
udp://tracker.internetwarriors.net:1337/announce
udp://tracker.leechers-paradise.org:6969/announce
udp://coppersurfer.tk:6969/announce
udp://tracker.zer0day.to:1337/announce
Torrent hash: 56D02B5C3EE1160D817FD640C414F2B18D98DDBA

0 Comment

Login to post comments