Rawkto Rawhoshyo (2020) Bengali UNTOUCHED 720p Hoichoi WEB-DL AAC2 0 x264 ESub 900MB [Themoviesboss]


0

0
seeders: 0 leechers: 0 updated: 1 week ago
Added 2 weeks ago in Movies - Bollywood
Downloaded 20 times.
Rawkto Rawhoshyo (2020) Bengali UNTOUCHED 720p Hoichoi WEB-DL AAC2 0 x264 ESub 900MB [Themoviesboss]
  • Release date: 21 Oct 2020
  • Release year: 2020
  • Runtime: 122 mintues
  • Country: India
Available in versions:
720p 1080p

Files

Rawkto Rawhoshyo (2020) Bengali UNTOUCHED 720p Hoichoi WEB-DL AAC2.0 x264 ESub 900MB [Themoviesboss].mkv (931.8 MB)
Rawkto Rawhoshyo (2020) Bengali UNTOUCHED 720p Hoichoi WEB-DL AAC2.0 x264 ESub 900MB [Themoviesboss].mkv 931.8 MB

Description




Encoded by                               : Harley Quinn






Movie name :


Rawkto Rawhoshyo (2020) Bengali UNTOUCHED 720p Hoichoi WEB-DL AAC2.0 x264 ESub 900MB [Themoviesboss]


General
Format : Matroska
Format version : Version 4
File size : 932 MiB
Duration : 2 h 0 min
Overall bit rate mode : Variable
Overall bit rate : 1 077 kb/s
Encoded date : UTC 2021-10-10 04:50:29
Writing application : mkvmerge v60.0.0 ('Are We Copies?') 64-bit
Writing library : libebml v1.4.2 + libmatroska v1.6.4

Video
ID : 1
Format : AVC
Format/Info : Advanced Video Codec
Format profile : [email protected]
Format settings : CABAC / 3 Ref Frames
Format settings, CABAC : Yes
Format settings, Reference frames : 3 frames
Codec ID : V_MPEG4/ISO/AVC
Duration : 2 h 0 min
Bit rate mode : Variable
Bit rate : 949 kb/s
Maximum bit rate : 1 400 kb/s
Width : 1 280 pixels
Height : 720 pixels
Display aspect ratio : 16:9
Frame rate mode : Constant
Frame rate : 25.000 FPS
Color space : YUV
Chroma subsampling : 4:2:0
Bit depth : 8 bits
Scan type : Progressive
Bits/(Pixel*Frame) : 0.041
Stream size : 821 MiB (88%)
Language : Bengali
Default : Yes
Forced : No

Audio
ID : 2
Format : AAC LC
Format/Info : Advanced Audio Codec Low Complexity
Codec ID : A_AAC-2
Duration : 2 h 0 min
Bit rate : 125 kb/s
Channel(s) : 2 channels
Channel layout : L R
Sampling rate : 48.0 kHz
Frame rate : 46.875 FPS (1024 SPF)
Compression mode : Lossy
Delay relative to video : -33 ms
Stream size : 108 MiB (12%)
Language : Bengali
Default : Yes
Forced : No

Text
ID : 3
Format : S_TEXT/WEBVTT
Codec ID : S_TEXT/WEBVTT
Duration : 1 h 56 min
Bit rate : 63 b/s
Count of elements : 1660
Stream size : 53.9 KiB (0%)
Language : English
Default : Yes
Forced : No


                                       


















Related Torrents

Trackers

Tracker name
udp://tracker.nyaa.uk:6969/announce
udp://tracker.coppersurfer.tk:6969/announce
udp://tracker.opentrackr.org:1337/announce
udp://9.rarbg.com:2970/announce
udp://p4p.arenabg.com:1337/announce
udp://tracker.pirateparty.gr:6969/announce
udp://exodus.desync.com:6969/announce
udp://tracker.torrent.eu.org:451/announce
udp://tracker.tiny-vps.com:6969/announce
http://pow7.com:80/announce
udp://151.80.120.114:2710/announce
udp://9.rarbg.to:2790/announce
udp://open.stealth.si:80/announce
udp://tracker.leechers-paradise.org:6969/announce
udp://tracker.zer0day.to:1337/announce
udp://tracker.leechers-paradise.org:6969/announce
udp://coppersurfer.tk:6969/announce
Torrent hash: 418C7C3BE8DB2D09BC744BCD6989A30AA4A21571

0 Comment

Login to post comments