Pushpa The Rise 2021 Hindi 4K UHD WebRip x264 E-AC3 5 1 ESubs [TMB]


0

0
seeders: 11 leechers: 18 updated: 11 hours ago
Added 3 days ago in Movies - Highres Movies
Downloaded 6 times.
Pushpa The Rise 2021 Hindi 4K UHD WebRip x264 E-AC3 5 1 ESubs [TMB]
  • Release date: 17 Dec 2021
  • Release year: 2021
  • Runtime: 179 mintues
  • Country: India
  • Keywords: smuggling
Plot:
Story of Pushpa Raj, a lorry driver in Seshachalam forests of South India, set in the backdrop of red sandalwood smuggling. Red Sandalwood is endemic to South-Eastern Ghats (mountain range) of India.

Available in versions:
Other Cam x264 x265 720p 1080p 4k

Files

Pushpa The Rise 2021 Hindi 4K UHD WebRip x264 E-AC3 5.1 ESubs [TMB].mp4 (16.4 GB)
Pushpa The Rise 2021 Hindi 4K UHD WebRip x264 E-AC3 5.1 ESubs [TMB].mp4 16.3 GB
Pushpa The Rise 2021 Hindi 4K UHD WebRip x264 E-AC3 5.1 ESubs [TMB] Sample.mp4 96.4 MB

Description




















General
Complete name               : Pushpa The Rise 2021 Hindi 4K UHD WebRip x264 E-AC3 5.1 ESubs [TMB].mp4
Format                      : MPEG-4
Format profile              : Base Media / Version 2
Codec ID                    : mp42 (mp42/iso2/avc1/mp41)
File size                   : 16.3 GiB
Duration                    : 2 h 55 min
Overall bit rate mode       : Variable
Overall bit rate            : 13.4 Mb/s

Video
Format                      : AVC
Format/Info                 : Advanced Video Codec
Format profile              : [email protected]
Format settings             : CABAC / 1 Ref Frames
Format settings, CABAC      : Yes
Format settings, Reference  : 1 frame
Codec ID                    : avc1
Codec ID/Info               : Advanced Video Coding
Duration                    : 2 h 55 min
Bit rate                    : 12.7 Mb/s
Width                       : 3 840 pixels
Height                      : 1 596 pixels
Display aspect ratio        : 2.40:1
Frame rate mode             : Variable
Frame rate                  : 24.000 FPS
Minimum frame rate          : 13.705 FPS
Maximum frame rate          : 24.000 FPS
Color space                 : YUV
Chroma subsampling          : 4:2:0
Bit depth                   : 8 bits
Scan type                   : Progressive
Bits/(Pixel*Frame)          : 0.086
Stream size                 : 15.5 GiB (95%)

Audio
Format                      : E-AC-3
Format/Info                 : Enhanced AC-3
Commercial name             : Dolby Digital Plus
Codec ID                    : ec-3
Duration                    : 2 h 55 min
Bit rate mode               : Constant
Bit rate                    : 640 kb/s
Channel(s)                  : 6 channels
Channel layout              : L R C LFE Ls Rs
Sampling rate               : 48.0 kHz
Frame rate                  : 31.250 FPS (1536 SPF)
Compression mode            : Lossy
Stream size                 : 802 MiB (5%)

Text
Format                      : Timed Text
Muxing mode                 : sbtl
Codec ID                    : tx3g
Duration                    : 2 h 51 min
Bit rate mode               : Variable
Bit rate                    : 106 b/s
Stream size                 : 133 KiB (0%)


Source : 4K UHD [email protected]

Rip & Uploaded & Shared by TMB

Seeding 24x7... Extreme Seeding...


Enjoy!

Related Torrents

Trackers

Tracker name
udp://tracker.coppersurfer.tk:6969/announce
udp://tracker.opentrackr.org:1337/announce
udp://tracker.leechers-paradise.org:6969/announce
udp://tracker.internetwarriors.net:1337/announce
udp://p4p.arenabg.com:1337/announce
udp://9.rarbg.to:2710/announce
udp://9.rarbg.me:2710/announce
udp://exodus.desync.com:6969/announce
udp://tracker.cyberia.is:6969/announce
udp://open.stealth.si:80/announce
udp://tracker.tiny-vps.com:6969/announce
udp://retracker.lanta-net.ru:2710/announce
udp://tracker.torrent.eu.org:451/announce
udp://tracker.moeking.me:6969/announce
udp://tracker.zer0day.to:1337/announce
udp://tracker.leechers-paradise.org:6969/announce
udp://coppersurfer.tk:6969/announce
Torrent hash: 9B5174C4DE282D95D7AAA0294476A9E23298074C

0 Comment

Login to post comments