Pushpa the Rise 2021 2160p AMZN WEB-DL DDP5 1 HEVC-Telly


0

0
seeders: 9 leechers: 6 updated: 1 day ago
Added 2 weeks ago in Movies - Highres Movies
Downloaded 8 times.
Pushpa the Rise 2021 2160p AMZN WEB-DL DDP5 1 HEVC-Telly
  • Release date: 7 Jan 2022
  • Release year: 2022
  • Runtime: 179 mintues
  • Country: India
  • Keywords: smuggling
Plot:
Story of Pushpa Raj, a lorry driver in Seshachalam forests of South India, set in the backdrop of red sandalwood smuggling. Red Sandalwood is endemic to South-Eastern Ghats (mountain range) of India.

Available in versions:
Other Cam x264 x265 720p 1080p 4k

Files

Pushpa.the.Rise.2021.2160p.AMZN.WEB-DL.DDP5.1.HEVC-Telly.mkv (12.7 GB)
Pushpa.the.Rise.2021.2160p.AMZN.WEB-DL.DDP5.1.HEVC-Telly.mkv 12.7 GB

Description




General
Unique ID : 119839351571036358777108152991769786057 (0x5A283835C8677EA3ABE12236EE1976C9)
Complete name : Pushpa.the.Rise.2021.2160p.AMZN.WEB-DL.DDP5.1.HEVC-Telly.mkv
Format : Matroska
Format version : Version 4 / Version 2
File size : 12.7 GiB
Duration : 2 h 55 min
Overall bit rate : 10.4 Mb/s
Movie name : Telly
Encoded date : UTC 2022-01-07 12:46:31
Writing application : mkvmerge v59.0.0 ('Shining Star') 64-bit
Writing library : libebml v1.4.2 + libmatroska v1.6.4

Video
ID : 1
Format : HEVC
Format/Info : High Efficiency Video Coding
Format profile : [email protected]@Main
Codec ID : V_MPEGH/ISO/HEVC
Duration : 2 h 55 min
Bit rate : 9 708 kb/s
Width : 3 840 pixels
Height : 1 600 pixels
Display aspect ratio : 2.40:1
Frame rate mode : Constant
Frame rate : 24.000 FPS
Standard : NTSC
Color space : YUV
Chroma subsampling : 4:2:0
Bit depth : 8 bits
Bits/(Pixel*Frame) : 0.066
Stream size : 11.9 GiB (94%)
Writing library : x265 2.9_elemental+1-9e0607aa5b6f:[Linux][GCC 4.8.5][64 bit] 8bit+10bit+12bit
Encoding settings : cpuid=1111039 / frame-threads=2 / wpp / no-pmode / no-pme / psnr / ssim / log-level=2 / csv / csv-log-level=2 / input-csp=1 / input-res=3840x1600 / interlace=0 / total-frames=0 / level-idc=50 / high-tier=1 / uhd-bd=0 / ref=5 / no-allow-non-conformance / no-repeat-headers / annexb / no-aud / no-hrd / info / hash=0 / no-temporal-layers / no-open-gop / min-keyint=61 / keyint=120 / gop-lookahead=0 / bframes=8 / b-adapt=2 / b-pyramid / bframe-bias=0 / rc-lookahead=120 / lookahead-slices=4 / scenecut=0 / radl=0 / no-intra-refresh / ctu=64 / min-cu-size=8 / rect / amp / max-tu-size=32 / tu-inter-depth=4 / tu-intra-depth=4 / limit-tu=4 / rdoq-level=2 / dynamic-rd=0.00 / no-ssim-rd / signhide / tskip / nr-intra=100 / nr-inter=600 / no-constrained-intra / strong-intra-smoothing / max-merge=3 / limit-refs=3 / limit-modes / me=3 / subme=3 / merange=57 / temporal-mvp / weightp / weightb / no-analyze-src-pics / deblock=0:0 / no-sao / no-sao-non-deblock / rd=4 / no-early-skip / no-rskip / no-fast-intra / tskip-fast / no-cu-lossless / b-intra / no-splitrd-skip / rdpenalty=0 / psy-rd=4.00 / psy-rdoq=10.00 / no-rd-refine / no-lossless / cbqpoffs=0 / crqpoffs=0 / rc=crf / crf=25.0 / qcomp=0.60 / qpstep=1 / stats-write=0 / stats-read=0 / vbv-maxrate=15000 / vbv-bufsize=20000 / vbv-init=0.9 / crf-max=0.0 / crf-min=0.0 / ipratio=1.10 / pbratio=1.00 / aq-mode=0 / aq-strength=1.50 / no-cutree / zone-count=0 / no-strict-cbr / qg-size=32 / rc-grain / qpmax=69 / qpmin=0 / const-vbv / sar=1 / overscan=0 / videoformat=2 / range=0 / colorprim=1 / transfer=1 / colormatrix=1 / chromaloc=0 / display-window=0 / max-cll=0,0 / min-luma=0 / max-luma=255 / log2-max-poc-lsb=8 / vui-timing-info / vui-hrd-info / slices=1 / opt-qp-pps / no-opt-ref-list-length-pps / no-multi-pass-opt-rps / scenecut-bias=0.05 / no-opt-cu-delta-qp / no-aq-motion / no-hdr / no-hdr-opt / no-dhdr10-opt / no-idr-recovery-sei / analysis-reuse-level=5 / scale-factor=0 / refine-intra=0 / refine-inter=0 / refine-mv=0 / no-limit-sao / ctu-info=0 / no-lowpass-dct / refine-mv-type=0 / copy-pic=1 / max-ausize-factor=1.0 / no-dynamic-refine / no-single-sei
Default : Yes
Forced : No
Color range : Limited
Color primaries : BT.709
Transfer characteristics : BT.709
Matrix coefficients : BT.709

Audio
ID : 2
Format : E-AC-3
Format/Info : Enhanced Audio Coding 3
Format settings, Endianness : Big
Codec ID : A_EAC3
Duration : 2 h 55 min
Bit rate mode : Constant
Bit rate : 640 kb/s
Channel(s) : 6 channels
Channel positions : Front: L C R, Side: L R, LFE
Sampling rate : 48.0 kHz
Frame rate : 187.500 FPS (256 spf)
Compression mode : Lossy
Stream size : 804 MiB (6%)
Title : Telugu
Language : Telugu
Default : No
Forced : No

Text
ID : 3
Format : UTF-8
Codec ID : S_TEXT/UTF8
Codec ID/Info : UTF-8 Plain Text
Duration : 2 h 50 min
Bit rate : 66 b/s
Count of elements : 2138
Stream size : 83.5 KiB (0%)
Title : English
Language : English
Default : No
Forced : No

Menu
00:00:00.000 : Studio Logo
00:01:16.000 : Scene 2
00:07:26.000 : Title Sequence
00:07:32.000 : Scene 4
00:14:50.000 : Scene 5
00:20:15.000 : Scene 6
00:28:58.000 : Scene 7
00:33:04.000 : Scene 8
00:40:53.000 : Scene 9
00:47:46.000 : Scene 10
00:54:58.000 : Scene 11
00:59:14.000 : Scene 12
01:06:35.000 : Scene 13
01:12:47.000 : Scene 14
01:19:10.000 : Scene 15
01:28:08.000 : Scene 16
01:35:28.000 : Scene 17
01:42:56.000 : Scene 18
01:52:30.000 : Scene 19
01:59:33.000 : Scene 20
02:04:42.000 : Scene 21
02:04:44.000 : Scene 22
02:10:48.000 : Scene 23
02:16:42.000 : Scene 24
02:23:36.000 : Scene 25
02:28:59.000 : Scene 26
02:33:51.000 : Scene 27
02:41:23.000 : Scene 28
02:52:17.000 : End Credits


Related Torrents

Trackers

Tracker name
http://tracker.mywaifu.best:6969/announce
udp://tracker.coppersurfer.tk:6969/announce
udp://tracker.leechers-paradise.org:6969/announce
udp://tracker.internetwarriors.net:1337/announce
udp://retracker.lanta-net.ru:2710/announce
udp://tracker.zer0day.to:1337/announce
udp://tracker.leechers-paradise.org:6969/announce
udp://coppersurfer.tk:6969/announce
Torrent hash: 51B604BD2467F76FFA69E33D966D5EA020C1FA5B

0 Comment

Login to post comments