Project Blue Book S01E01 The Fuller Dogfight 1080p Webrip x265 EAC3 2 0 Goki [SE


0

0
seeders: 13 leechers: 2
Added 3 years ago in TV
Downloaded 6 times.
Project Blue Book S01E01 The Fuller Dogfight 1080p Webrip x265 EAC3 2 0 Goki [SE

Files

Project Blue Book S01E01 The Fuller Dogfight 1080p Webrip x265 EAC3 2.0 Goki [SEV].mkv (572.96 MB)
Project Blue Book S01E01 The Fuller Dogfight 1080p Webrip x265 EAC3 2.0 Goki [SEV].mkv 572.96 MB

Description












Media Information


Unique ID : 220256478340812588909183154283534924796 (0xA5B3DACE27D607ABAE36DA00BAC4BBFC)
Complete name : Project Blue Book S01E01 The Fuller Dogfight 1080p Webrip x265 EAC3 2.0 Goki [SEV].mkv
Format : Matroska
Format version : Version 4
File size : 573 MiB
Duration : 44 min 16 s
Overall bit rate : 1 809 kb/s
Encoded date : UTC 2019-01-10 00:15:26
Writing application : mkvmerge v13.0.0 ('The Juggler') 64bit
Writing library : libebml v1.3.4 + libmatroska v1.4.5 / Lavf57.73.100
Writing application : Internet Friendly Media Encoder v7.7 ('Prism Ark')
Writing library : IFME v7.7 amd64 windows

Video
ID : 1
Format : HEVC
Format/Info : High Efficiency Video Coding
Format profile : Main [email protected]@Main
Codec ID : V_MPEGH/ISO/HEVC
Duration : 44 min 16 s
Bit rate : 1 549 kb/s
Width : 1 920 pixels
Height : 960 pixels
Display aspect ratio : 2.000
Frame rate mode : Constant
Frame rate : 23.976 (24000/1001) FPS
Color space : YUV
Chroma subsampling : 4:2:0
Bit depth : 10 bits
Bits/(Pixel*Frame) : 0.035
Stream size : 491 MiB (86%)
Writing library : x265 2.9+8-27d8424c799d:[Windows][MSVC 1915][64 bit] 10bit
Encoding settings : cpuid=1111039 / frame-threads=3 / numa-pools=8 / wpp / no-pmode / no-pme / no-psnr / no-ssim / log-level=2 / input-csp=1 / input-res=1920x960 / interlace=0 / total-frames=0 / level-idc=0 / high-tier=1 / uhd-bd=0 / ref=4 / no-allow-non-conformance / no-repeat-headers / annexb / no-aud / no-hrd / info / hash=0 / no-temporal-layers / open-gop / min-keyint=23 / keyint=250 / gop-lookahead=0 / bframes=8 / b-adapt=2 / b-pyramid / bframe-bias=0 / rc-lookahead=100 / lookahead-slices=4 / scenecut=40 / radl=0 / no-intra-refresh / ctu=64 / min-cu-size=8 / no-rect / no-amp / max-tu-size=32 / tu-inter-depth=1 / tu-intra-depth=1 / limit-tu=0 / rdoq-level=2 / dynamic-rd=0.00 / no-ssim-rd / signhide / no-tskip / nr-intra=0 / nr-inter=0 / no-constrained-intra / no-strong-intra-smoothing / max-merge=3 / limit-refs=3 / limit-modes / me=3 / subme=5 / merange=57 / temporal-mvp / weightp / no-weightb / no-analyze-src-pics / deblock=0:0 / sao / no-sao-non-deblock / rd=4 / no-early-skip / rskip / no-fast-intra / no-tskip-fast / no-cu-lossless / no-b-intra / no-splitrd-skip / rdpenalty=0 / psy-rd=1.30 / psy-rdoq=2.00 / no-rd-refine / no-lossless / cbqpoffs=0 / crqpoffs=0 / rc=crf / crf=21.0 / qcomp=0.60 / qpstep=4 / stats-write=0 / stats-read=0 / ipratio=1.40 / pbratio=1.30 / aq-mode=2 / aq-strength=1.10 / cutree / zone-count=0 / no-strict-cbr / qg-size=32 / no-rc-grain / qpmax=69 / qpmin=0 / no-const-vbv / sar=1 / overscan=0 / videoformat=5 / range=0 / colorprim=2 / transfer=2 / colormatrix=2 / chromaloc=0 / display-window=0 / max-cll=0,0 / min-luma=0 / max-luma=1023 / log2-max-poc-lsb=8 / vui-timing-info / vui-hrd-info / slices=1 / no-opt-qp-pps / no-opt-ref-list-length-pps / no-multi-pass-opt-rps / scenecut-bias=0.05 / no-opt-cu-delta-qp / no-aq-motion / no-hdr / no-hdr-opt / no-dhdr10-opt / no-idr-recovery-sei / analysis-reuse-level=5 / scale-factor=0 / refine-intra=0 / refine-inter=0 / refine-mv=0 / no-limit-sao / ctu-info=0 / no-lowpass-dct / refine-mv-type=0 / copy-pic=1 / max-ausize-factor=1.0 / no-dynamic-refine / no-single-sei
Default : Yes
Forced : No

Audio
ID : 2
Format : E-AC-3
Format/Info : Enhanced AC-3
Commercial name : Dolby Digital Plus
Codec ID : A_EAC3
Duration : 44 min 16 s
Bit rate mode : Constant
Bit rate : 224 kb/s
Channel(s) : 2 channels
Channel layout : L R
Sampling rate : 48.0 kHz
Frame rate : 31.250 FPS (1536 SPF)
Compression mode : Lossy
Stream size : 70.9 MiB (12%)
Language : English
Service kind : Complete Main
Default : Yes
Forced : No

Text
ID : 3
Format : UTF-8
Codec ID : S_TEXT/UTF8
Codec ID/Info : UTF-8 Plain Text
Language : English
Default : Yes
Forced : No









We have no issue with individuals posting or re-uploading our torrents on a platform we aren't on. However, if this is something you'd like to do, please do so in a 'as-is' format. We ask that you do not create a new torrent, include all descriptions you see above including the SEV logo, tags, notes and screenshots. If you'd like to become a permanent poster on a website we don't post to, feel free to get in contact with a Sublime Encoded Video member.



We are recruiting/training new members for SEV & seedbox providers as well as people to help out with subtitles.
As you already know, we deliver quality, so you know the standard.
If you're interested, feel free to contact any of the team members.

Related Torrents

Trackers

Tracker name
udp://tracker.coppersurfer.tk:80/announce
udp://tracker.pirateparty.gr:6969/announce
udp://tracker.internetwarriors.net:1337/announce
udp://tracker.opentrackr.org:1337/announce
udp://9.rarbg.to:2730/announce
udp://9.rarbg.to:2740/announce
udp://9.rarbg.to:2720/announce
udp://9.rarbg.to:2710/announce
udp://9.rarbg.me:2740/announce
udp://9.rarbg.me:2770/announce
udp://9.rarbg.me:2710/announce
udp://tracker.torrent.eu.org:451
udp://tracker.port443.xyz:6969/announce
udp://IPv6.open-internet.nl:6969/announce
udp://p4p.arenabg.ch:1337/announce
udp://denis.stalker.upeer.me:1337/announce
udp://shadowshq.yi.org:6969/announce
udp://eddie4.nl:6969/announce
udp://tracker.mg64.net:6969/announce
udp://inferno.demonoid.pw:3418/announce
udp://tracker.cyberia.is:6969/announce
udp://tracker.zer0day.to:1337/announce
udp://asnet.pw:2710/announce
udp://ipv6.tracker.harry.lu:80/announce
udp://glotorrents.pw:6969/announce
udp://tracker.torrent.eu.org:451/announce
udp://open.demonii.si:1337/announce
udp://tracker.qt.is:6969/announce
udp://9.rarbg.to:2770/announce
udp://9.rarbg.me:2730/announce
udp://tracker.ds.is:6969/announce
udp://exodus.desync.com:6969/announce
udp://tracker.tiny-vps.com:6969/announce
udp://tracker.justseed.it:1337/announce
udp://tracker.coppersurfer.tk:6969/announce
udp://thetracker.org:80/announce
udp://tracker.vanitycore.co:6969/announce
udp://tracker.cypherpunks.ru:6969/announce
udp://ipv4.tracker.harry.lu:80/announce
udp://tracker.open-internet.nl:6969/announce
udp://public.popcorn-tracker.org:6969/announce
udp://tracker.0o.is:6969/announce
udp://tracker.trackerfix.com:80/announce
udp://bt.xxx-tracker.com:2710/announce
udp://open.stealth.si:80/announce
http://share.camoe.cn:8080/announce
https://open.acgnxtracker.com:443/announce
http://tracker.tfile.co:80/announce
http://retracker.spb.ru:80/announce
http://open.acgnxtracker.com/announce
http://bt.acg.gg:1578/announce
http://tracker3.itzmx.com:8080/announce
udp://tracker.acg.gg:2710/announce
Torrent hash: CD379626E4E60267F4DABF59720C0DF3B234E766

0 Comment

Login to post comments