Pokemon Indigo League (ポケットモンスター) (Japanese) [AV1] [OPUS]


0

0
seeders: 1 leechers: 1 updated: 6 months ago
Added 7 months ago in Anime
Downloaded 0 time.
Pokemon Indigo League (ポケットモンスター) (Japanese) [AV1] [OPUS]

Files

Pokemon Indigo League (ポケットモンスター) (Japanese) [AV1] [OPUS] (Size: 5.2 GB)
▼ show more 66 files
Pokemon Indigo League - 01 [AV1] [OPUS].mkv 70.2 MB
Pokemon Indigo League - 02 [AV1] [OPUS].mkv 61.8 MB
Pokemon Indigo League - 03 [AV1] [OPUS].mkv 66.5 MB
Pokemon Indigo League - 04 [AV1] [OPUS].mkv 66.1 MB
Pokemon Indigo League - 05 [AV1] [OPUS].mkv 56.5 MB
Pokemon Indigo League - 06 [AV1] [OPUS].mkv 61.5 MB
Pokemon Indigo League - 07 [AV1] [OPUS].mkv 55.8 MB
Pokemon Indigo League - 08 [AV1] [OPUS].mkv 57.8 MB
Pokemon Indigo League - 09 [AV1] [OPUS].mkv 58.8 MB
Pokemon Indigo League - 10 [AV1] [OPUS].mkv 65.6 MB
Pokemon Indigo League - 11 [AV1] [OPUS].mkv 59.9 MB
Pokemon Indigo League - 12 [AV1] [OPUS].mkv 62.8 MB
Pokemon Indigo League - 13 [AV1] [OPUS].mkv 52.8 MB
Pokemon Indigo League - 14 [AV1] [OPUS].mkv 54.9 MB
Pokemon Indigo League - 15 [AV1] [OPUS].mkv 61.8 MB
Pokemon Indigo League - 16 [AV1] [OPUS].mkv 57.2 MB
Pokemon Indigo League - 17 [AV1] [OPUS].mkv 67 MB
Pokemon Indigo League - 18 [AV1] [OPUS].mkv 59.8 MB
Pokemon Indigo League - 19 [AV1] [OPUS].mkv 58.7 MB
Pokemon Indigo League - 20 [AV1] [OPUS].mkv 56.4 MB
Pokemon Indigo League - 21 [AV1] [OPUS].mkv 64.9 MB
Pokemon Indigo League - 22 [AV1] [OPUS].mkv 54.3 MB
Pokemon Indigo League - 23 [AV1] [OPUS].mkv 58.9 MB
Pokemon Indigo League - 24 [AV1] [OPUS].mkv 57 MB
Pokemon Indigo League - 25 [AV1] [OPUS].mkv 65.7 MB
Pokemon Indigo League - 26 [AV1] [OPUS].mkv 58.5 MB
Pokemon Indigo League - 27 [AV1] [OPUS].mkv 63.8 MB
Pokemon Indigo League - 28 [AV1] [OPUS].mkv 57.5 MB
Pokemon Indigo League - 29 [AV1] [OPUS].mkv 57 MB
Pokemon Indigo League - 30 [AV1] [OPUS].mkv 55.9 MB
Pokemon Indigo League - 31 [AV1] [OPUS].mkv 57.6 MB
Pokemon Indigo League - 32 [AV1] [OPUS].mkv 61.4 MB
Pokemon Indigo League - 33 [AV1] [OPUS].mkv 69.1 MB
Pokemon Indigo League - 34 [AV1] [OPUS].mkv 64 MB
Pokemon Indigo League - 35 [AV1] [OPUS].mkv 58.4 MB
Pokemon Indigo League - 36 [AV1] [OPUS].mkv 69.1 MB
Pokemon Indigo League - 37 [AV1] [OPUS].mkv 54.6 MB
Pokemon Indigo League - 39 [AV1] [OPUS].mkv 70 MB
Pokemon Indigo League - 40 [AV1] [OPUS].mkv 75.1 MB
Pokemon Indigo League - 41 [AV1] [OPUS].mkv 73.1 MB
Pokemon Indigo League - 42 [AV1] [OPUS].mkv 71.8 MB
Pokemon Indigo League - 43 [AV1] [OPUS].mkv 79.3 MB
Pokemon Indigo League - 44 [AV1] [OPUS].mkv 74 MB
Pokemon Indigo League - 45 [AV1] [OPUS].mkv 75.8 MB
Pokemon Indigo League - 46 [AV1] [OPUS].mkv 80.5 MB
Pokemon Indigo League - 47 [AV1] [OPUS].mkv 70.5 MB
Pokemon Indigo League - 48 [AV1] [OPUS].mkv 72.3 MB
Pokemon Indigo League - 49 [AV1] [OPUS].mkv 73.7 MB
Pokemon Indigo League - 50 [AV1] [OPUS].mkv 72.2 MB
Pokemon Indigo League - 51 [AV1] [OPUS].mkv 82.2 MB
Pokemon Indigo League - 52 [AV1] [OPUS].mkv 66.9 MB
Pokemon Indigo League - 53 [AV1] [OPUS].mkv 82.2 MB
Pokemon Indigo League - 54 [AV1] [OPUS].mkv 58.8 MB
Pokemon Indigo League - 55 [AV1] [OPUS].mkv 62.7 MB
Pokemon Indigo League - 56 [AV1] [OPUS].mkv 63.4 MB
Pokemon Indigo League - 57 [AV1] [OPUS].mkv 57.7 MB
Pokemon Indigo League - 58 [AV1] [OPUS].mkv 65.7 MB
Pokemon Indigo League - 59 [AV1] [OPUS].mkv 74.8 MB
Pokemon Indigo League - 60 [AV1] [OPUS].mkv 73.8 MB
Pokemon Indigo League - 61 [AV1] [OPUS].mkv 66.9 MB
Pokemon Indigo League - 62 [AV1] [OPUS].mkv 68.6 MB
Pokemon Indigo League - 63 [AV1] [OPUS].mkv 65.8 MB
Pokemon Indigo League - 64 [AV1] [OPUS].mkv 66.7 MB
Pokemon Indigo League - 65 [AV1] [OPUS].mkv 67 MB
Pokemon Indigo League - 66 [AV1] [OPUS].mkv 75.6 MB
Pokemon Indigo League - 67 [AV1] [OPUS].mkv 65.5 MB
Pokemon Indigo League - 68 [AV1] [OPUS].mkv 64.8 MB
Pokemon Indigo League - 69 [AV1] [OPUS].mkv 61.8 MB
Pokemon Indigo League - 70 [AV1] [OPUS].mkv 64.7 MB
Pokemon Indigo League - 71 [AV1] [OPUS].mkv 71.5 MB
Pokemon Indigo League - 72 [AV1] [OPUS].mkv 66.3 MB
Pokemon Indigo League - 73 [AV1] [OPUS].mkv 74.4 MB
Pokemon Indigo League - 74 [AV1] [OPUS].mkv 70.8 MB
Pokemon Indigo League - 75 [AV1] [OPUS].mkv 75 MB
Pokemon Indigo League - 76 [AV1] [OPUS].mkv 82.9 MB
Pokemon Indigo League - 77 [AV1] [OPUS].mkv 69.9 MB
Pokemon Indigo League - 78 [AV1] [OPUS].mkv 68.2 MB
Pokemon Indigo League - 79 [AV1] [OPUS].mkv 80.2 MB
Pokemon Indigo League - 80 [AV1] [OPUS].mkv 73.9 MB
Pokemon Indigo League - 81 [AV1] [OPUS].mkv 68.1 MB
Pokemon Indigo League - 82 [AV1] [OPUS].mkv 73.8 MB

Description

ポケットモンスター
Pocket Monster/Pokemon Indigo League (1997)

Synopsis
It's Ash Ketchum's tenth birthday, and he's ready to do what many 10-year-olds in the Kanto region set out to do—become a Pokemon Trainer! Things don't go exactly the way he planned when he ends up with a Pikachu instead of a standard first Pokemon, and winning Gym Badges turns out to be much tougher than he thought. Luckily he's got former Gym Leaders Brock and Misty at his side, along with a bevy of new Pokémon friends, including Bulbasaur, Squirtle, and Charmander.

Note:
The audio is only in Japanese.
There are no English subtitles. The English subtitles you might find from the English/4Kids version do not sync up well with the Japanese version because of the edits/censorship they've done.
Episode 38 (denno senshi porygon / electric soldier porygon) is not included.













Code:


Video
ID                                       : 1
Format                                   : AV1
Format/Info                              : AOMedia Video 1
Format profile                           : [email protected]
Codec ID                                 : V_AV1
Duration                                 : 22 min 52 s
Bit rate                                 : 303 kb/s
Width                                    : 640 pixels
Height                                   : 480 pixels
Display aspect ratio                     : 4:3
Frame rate mode                          : Constant
Frame rate                               : 23.976 FPS
Color space                              : YUV
Chroma subsampling                       : 4:2:0
Bit depth                                : 10 bits
Bits/(Pixel*Frame)                       : 0.041
Stream size                              : 49.6 MiB (71%)
Writing library                          : Lavc59.13.100 libaom-av1
Default                                  : Yes
Forced                                   : No
Color range                              : Limited
Color primaries                          : BT.709
Transfer characteristics                 : BT.709
Matrix coefficients                      : BT.709

Audio
ID                                       : 2
Format                                   : Opus
Codec ID                                 : A_OPUS
Duration                                 : 22 min 52 s
Bit rate                                 : 124 kb/s
Channel(s)                               : 2 channels
Channel layout                           : L R
Sampling rate                            : 48.0 kHz
Frame rate                               : 50.000 FPS (960 SPF)
Bit depth                                : 32 bits
Compression mode                         : Lossy
Stream size                              : 20.3 MiB (29%)
Writing library                          : Lavc59.13.100 libopus
Default                                  : Yes
Forced                                   : No

Related Torrents

Trackers

Tracker name
udp://open.tracker.cl:1337/announce
udp://tracker.opentrackr.org:1337/announce
udp://9.rarbg.com:2810/announce
udp://tracker.openbittorrent.com:6969/announce
udp://exodus.desync.com:6969/announce
udp://open.stealth.si:80/announce
udp://tracker.zer0day.to:1337/announce
udp://tracker.leechers-paradise.org:6969/announce
udp://coppersurfer.tk:6969/announce
Torrent hash: F8D9EEE3E254FD96AE33DDBB3989F2F336A9627A

0 Comment

Login to post comments