Pleasure 2021 1080p WEBRip DD5 1 x264-NOGRP


0

0
seeders: 0 leechers: 0 updated: 2 weeks ago
Added 2 weeks ago in Movies - Highres Movies
Downloaded 3 times.
Pleasure 2021 1080p WEBRip DD5 1 x264-NOGRP
  • Release date: 8 Oct 2021
  • Release year: 2021
  • Runtime: 109 mintues
  • Country: Sweden, Netherlands, France
  • Keywords: sex worker, swedish lifestyle, sweden, nipple piercing, topless female
  • Budget: $19,000,000
Plot:
19-year-old Linnea leaves her small town life in Sweden for Los Angeles to become Jessica, the world's next big porn star. But the road to her goal turns out to be bumpier than she imagined.

Available in versions:
Other x264 720p 1080p

Files

Pleasure.2021.1080p.WEBRip.DD5.1.x264-NOGRP.mkv (5.3 GB)
Pleasure.2021.1080p.WEBRip.DD5.1.x264-NOGRP.mkv 5.3 GB
RARBG.txt 0 B

Description

Screens... (click to enlarge):









Infolink -> https://www.imdb.com/title/tt8550054/

Mediainfo


Quote:

Video
ID : 1
Format : AVC
Format/Info : Advanced Video Codec
Format profile : [email protected]
Format settings : CABAC / 4 Ref Frames
Format settings, CABAC : Yes
Format settings, Reference frames : 4 frames
Codec ID : V_MPEG4/ISO/AVC
Duration : 1 h 48 min
Bit rate : 6 698 kb/s
Width : 1 920 pixels
Height : 1 040 pixels
Display aspect ratio : 1.85:1
Frame rate mode : Constant
Frame rate : 24.000 FPS
Color space : YUV
Chroma subsampling : 4:2:0
Bit depth : 8 bits
Scan type : Progressive
Bits/(Pixel*Frame) : 0.140
Stream size : 5.05 GiB (95%)
Default : Yes
Forced : No
Color range : Limited
Color primaries : BT.709
Transfer characteristics : BT.709
Matrix coefficients : BT.709

Audio
ID : 2
Format : AC-3
Format/Info : Audio Coding 3
Commercial name : Dolby Digital
Codec ID : A_AC3
Duration : 1 h 48 min
Bit rate mode : Constant
Bit rate : 384 kb/s
Channel(s) : 6 channels
Channel layout : L R C LFE Ls Rs
Sampling rate : 48.0 kHz
Frame rate : 31.250 FPS (1536 SPF)
Compression mode : Lossy
Stream size : 297 MiB (5%)
Title : English
Language : English
Service kind : Complete Main
Default : No
Forced : No

Related Torrents

Trackers

Tracker name
http://tracker.trackerfix.com:80/announce
udp://9.rarbg.me:2870/announce
udp://9.rarbg.to:2780/announce
udp://tracker.slowcheetah.org:14720/announce
udp://tracker.tallpenguin.org:15790/announce
udp://tracker.zer0day.to:1337/announce
udp://tracker.leechers-paradise.org:6969/announce
udp://coppersurfer.tk:6969/announce
Torrent hash: 44E157F9BD795B6A97412DACD7E3E70188CBD614

0 Comment

Login to post comments