Operation Mincemeat 2021 WEBRip x264-ION10


0

0
seeders: 441 leechers: 23 updated: 2 days ago
Added 1 week ago in Movies
Downloaded 195 times.
Operation Mincemeat 2021 WEBRip x264-ION10
  • Release date: 11 May 2022
  • Release year: 2022
  • Runtime: 128 mintues
  • Country: United States, United Kingdom
Available in versions:
Other x264 720p 1080p 4k

Files

Operation Mincemeat 2021 WEBRip x264-ION10 (Size: 1.2 GB)
Operation.Mincemeat.2021.WEBRip.x264-ION10.mp4 1.2 GB
RARBG.txt 0 B
RARBG_DO_NOT_MIRROR.exe 102.4 B
2_English.srt 5.5 KB
3_English.srt 135.9 KB
4_English.srt 147.6 KB
5_Spanish.srt 121.5 KB
6_Spanish.srt 140.4 KB
7_Portuguese.srt 126.1 KB
8_Portuguese.srt 141.1 KB
9_Portuguese.srt 152.5 KB

Description

Screens... (click to enlarge):












Infolink -> https://www.imdb.com/title/tt1879016/

Mediainfo


Quote:

Video
ID : 1
Format : AVC
Format/Info : Advanced Video Codec
Format profile : [email protected]
Format settings : CABAC / 5 Ref Frames
Format settings, CABAC : Yes
Format settings, Reference frames : 5 frames
Codec ID : avc1
Codec ID/Info : Advanced Video Coding
Duration : 2 h 7 min
Bit rate : 1 100 kb/s
Width : 720 pixels
Height : 300 pixels
Display aspect ratio : 2.40:1
Frame rate mode : Constant
Frame rate : 24.000 FPS
Color space : YUV
Chroma subsampling : 4:2:0
Bit depth : 8 bits
Scan type : Progressive
Bits/(Pixel*Frame) : 0.212
Stream size : 1 004 MiB (81%)
Title : RARBG - Operation.Mincemeat.2021.WEBRip.x264-ION10
Writing library : x264 core 152 r2851M ba24899
Encoding settings : cabac=1 / ref=5 / deblock=1:-1:-1 / analyse=0x3:0x113 / me=umh / subme=9 / psy=1 / psy_rd=1.00:0.15 / mixed_ref=1 / me_range=16 / chroma_me=1 / trellis=2 / 8x8dct=1 / cqm=0 / deadzone=21,11 / fast_pskip=1 / chroma_qp_offset=-3 / threads=16 / lookahead_threads=1 / sliced_threads=0 / nr=0 / decimate=1 / interlaced=0 / bluray_compat=0 / constrained_intra=0 / bframes=3 / b_pyramid=2 / b_adapt=2 / b_bias=0 / direct=3 / weightb=1 / open_gop=0 / weightp=2 / keyint=250 / keyint_min=24 / scenecut=40 / intra_refresh=0 / rc_lookahead=50 / rc=2pass / mbtree=1 / bitrate=1100 / ratetol=1.0 / qcomp=0.60 / qpmin=0 / qpmax=69 / qpstep=4 / cplxblur=20.0 / qblur=0.5 / ip_ratio=1.40 / aq=1:1.00
Encoded date : UTC 2022-05-11 07:16:28
Tagged date : UTC 2022-05-11 07:16:28
Codec configuration box : avcC

Audio
ID : 2
Format : AAC LC
Format/Info : Advanced Audio Codec Low Complexity
Codec ID : mp4a-40-2
Duration : 2 h 7 min
Duration_LastFrame : -11 ms
Bit rate mode : Constant
Bit rate : 256 kb/s
Channel(s) : 2 channels
Channel layout : L R
Sampling rate : 48.0 kHz
Frame rate : 46.875 FPS (1024 SPF)
Compression mode : Lossy
Stream size : 234 MiB (19%)
Title : RARBG - Operation.Mincemeat.2021.WEBRip.x264-ION10
Language : English
Default : Yes
Alternate group : 1
Encoded date : UTC 2022-05-11 07:16:28
Tagged date : UTC 2022-05-11 07:16:28

Related Torrents

Trackers

Tracker name
http://tracker.trackerfix.com:80/announce
udp://9.rarbg.me:2990/announce
udp://9.rarbg.to:2900/announce
udp://tracker.tallpenguin.org:15740/announce
udp://tracker.slowcheetah.org:14720/announce
udp://tracker.opentrackr.org:1337/announce
http://tracker.openbittorrent.com:80/announce
udp://opentracker.i2p.rocks:6969/announce
udp://tracker.internetwarriors.net:1337/announce
udp://tracker.leechers-paradise.org:6969/announce
udp://coppersurfer.tk:6969/announce
udp://tracker.zer0day.to:1337/announce
Torrent hash: 37CE9FA3FF7AE312D0E06A2C48BE69AB2638BC81

0 Comment

Login to post comments