Needle in a Timestack 2021 720p BluRay H264 AAC-RARBG


0

0
seeders: 0 leechers: 0 updated: 1 month ago
Added 1 month ago in Movies - Highres Movies
Downloaded 1 time.
Needle in a Timestack 2021 720p BluRay H264 AAC-RARBG
  • Release date: 14 Oct 2021
  • Release year: 2021
  • Runtime: 111 mintues
  • Country: United States
  • Keywords: time travel, scifi
Plot:
If love is in the form of a circle, what lines would you cross to be with your soulmate? In this gripping, near-future love story directed by Oscar® winner John Ridley, Nick and Janine (Oscar® nominees Leslie Odom, Jr. and Cynthia Erivo) live in marital bliss, until Janine's ex-husband (Orlando Bloom) warps time to try to tear them apart using Nick's college girlfriend (Frieda Pinto). As Nick's memories and reality disappear, he must decide what he's willing to sacrifice in order to hold onto - or let go of - everything he loves. Can love endure in a future where time is fluid, and all of life may be just an illusion?

Available in versions:
Other x264 720p 1080p 4k

Files

Needle.in.a.Timestack.2021.720p.BluRay.H264.AAC-RARBG.mp4 (1.3 GB)
Needle.in.a.Timestack.2021.720p.BluRay.H264.AAC-RARBG.mp4 1.3 GB
RARBG.txt 0 B
RARBG_DO_NOT_MIRROR.exe 102.4 B
2_English.srt 81.2 KB

Description

Screens... (click to enlarge):









Infolink -> https://www.imdb.com/title/tt7099280/

Mediainfo


Quote:

Video
ID : 1
Format : AVC
Format/Info : Advanced Video Codec
Format profile : [email protected]
Format settings : CABAC / 4 Ref Frames
Format settings, CABAC : Yes
Format settings, Reference frames : 4 frames
Codec ID : avc1
Codec ID/Info : Advanced Video Coding
Duration : 1 h 51 min
Bit rate : 1 500 kb/s
Width : 1 280 pixels
Height : 536 pixels
Display aspect ratio : 2.40:1
Frame rate mode : Constant
Frame rate : 23.976 (23976/1000) FPS
Color space : YUV
Chroma subsampling : 4:2:0
Bit depth : 8 bits
Scan type : Progressive
Bits/(Pixel*Frame) : 0.091
Stream size : 1.17 GiB (87%)
Writing library : x264 core 152 r2851M ba24899
Encoding settings : cabac=1 / ref=4 / deblock=1:-1:-1 / analyse=0x3:0x113 / me=umh / subme=9 / psy=1 / psy_rd=1.00:0.15 / mixed_ref=1 / me_range=24 / chroma_me=1 / trellis=2 / 8x8dct=1 / cqm=0 / deadzone=21,11 / fast_pskip=1 / chroma_qp_offset=-3 / threads=16 / lookahead_threads=4 / sliced_threads=0 / nr=0 / decimate=1 / interlaced=0 / bluray_compat=0 / constrained_intra=0 / bframes=3 / b_pyramid=2 / b_adapt=2 / b_bias=0 / direct=3 / weightb=1 / open_gop=0 / weightp=2 / keyint=250 / keyint_min=25 / scenecut=40 / intra_refresh=0 / rc_lookahead=50 / rc=2pass / mbtree=1 / bitrate=1500 / ratetol=1.0 / qcomp=0.60 / qpmin=0 / qpmax=69 / qpstep=4 / cplxblur=20.0 / qblur=0.5 / vbv_maxrate=31250 / vbv_bufsize=31250 / nal_hrd=none / filler=0 / ip_ratio=1.40 / aq=3:1.00
Encoded date : UTC 2021-10-15 14:33:59
Tagged date : UTC 2021-10-15 14:33:59
Codec configuration box : avcC

Audio
ID : 2
Format : AAC LC
Format/Info : Advanced Audio Codec Low Complexity
Codec ID : mp4a-40-2
Duration : 1 h 51 min
Bit rate mode : Constant
Bit rate : 224 kb/s
Channel(s) : 6 channels
Channel layout : C L R Ls Rs LFE
Sampling rate : 48.0 kHz
Frame rate : 46.875 FPS (1024 SPF)
Compression mode : Lossy
Stream size : 179 MiB (13%)
Language : English
Default : Yes
Alternate group : 1
Encoded date : UTC 2021-10-15 14:33:59
Tagged date : UTC 2021-10-15 14:33:59

Related Torrents

Trackers

Tracker name
http://tracker.trackerfix.com:80/announce
udp://9.rarbg.me:2720/announce
udp://9.rarbg.to:2750/announce
udp://tracker.thinelephant.org:12790/announce
udp://tracker.slowcheetah.org:14790/announce
udp://tracker.zer0day.to:1337/announce
udp://tracker.leechers-paradise.org:6969/announce
udp://coppersurfer.tk:6969/announce
Torrent hash: DF642C309E568C69E22AED3A324D6065F68C7DBC

0 Comment

Login to post comments