Macbeth 2021 ITA-ENG 2160p ATVP WEB-DL DDP5 1 Atmos DV HEVC-gattopollo mkv


0

0
seeders: 1 leechers: 18 updated: 4 months ago
Added 4 months ago in Movies - Highres Movies
Downloaded 5 times.
Macbeth 2021 ITA-ENG 2160p ATVP WEB-DL DDP5 1 Atmos DV HEVC-gattopollo mkv
  • Release date: 14 Jan 2022
  • Release year: 2022
  • Runtime: 105 mintues
  • Country: United States
  • Keywords: wife, murder, death, ambition, plot
Plot:
A Scottish lord becomes convinced by a trio of witches that he will become the next King of Scotland, and his ambitious wife supports him in his plans of seizing power.

Available in versions:
Other x264 x265 480p 720p 1080p 4k

Files

Macbeth 2021 ITA-ENG 2160p ATVP WEB-DL DDP5 1 Atmos DV HEVC-gattopollo mkv (Size: 18.5 GB)
Macbeth.2021.ITA-ENG.2160p.ATVP.WEB-DL.DDP5.1.Atmos.DV.HEVC-gattopollo.mkv 18.5 GB

Description

[quote author=gattopollo link=topic=133449.msg283870#msg283870 date=1642274504]

.:: TITOLO ::.



Macbeth.2021.ITA-ENG.2160p.ATVP.WEB-DL.DDP5.1.Atmos.DV.HEVC-gattopollo







.:: INFO SERIE ::.




Titolo originale: The Tragedy of Macbeth
Data di uscita: 14 Gennaio 2022
Genere: Drammatico, Storico, Thriller
Anno: 2021
Regia: Joel Coen
IMDb

.:: TRAMA ::.

Adattamento della tragedia shakespeariana narra la storia di un lord scozzese, Macbeth, che viene destinato come Re di Scozia da un trio di streghe. ... Nella Scozia medievale, i generali Macbeth e Banquo stanno tornando a casa da vincitori, dopo le vittorie ottenute contro le forze norvegesi e irlandesi.



.:: SCREENSHOT ::.






.:: INFO TECNICHE ::.

Sorgente Video: ATVP
Sorgente Audio : ATVP
Risoluzione: 2956x2160, H.265
Audio 1: ITA E-AC3 JOC 6ch @768kb/s
Audio 2: ENG E-AC3 JOC 6ch @768kb/s
Sottotitoli: ITA FORCED, ITA REGULAR,ITA SDH, ENG REGULAR, ENG SDH



.:: MEDIAINFO ::.




Code:


General
Unique ID : 310597082863890269190134518728405644642 (0xE9AAD27F26F83F854A55FA819A997562)
Complete name : Macbeth.2021.ITA-ENG.2160p.ATVP.WEB-DL.DDP5.1.Atmos.DV.HEVC-gattopollo.mkv
Format : Matroska
Format version : Version 4
File size : 18.5 GiB
Duration : 1 h 45 min
Overall bit rate : 25.2 Mb/s
Encoded date : UTC 2022-01-14 16:26:38
Writing application : mkvmerge v64.0.0 ('Willows') 64-bit
Writing library : libebml v1.4.2 + libmatroska v1.6.4

Video
ID : 1
Format : HEVC
Format/Info : High Efficiency Video Coding
Format profile : Main [email protected]@High
HDR format : Dolby Vision, Version 1.0, dvhe.05.06, BL+RPU
Codec ID : V_MPEGH/ISO/HEVC
Duration : 1 h 45 min
Bit rate : 23.7 Mb/s
Width : 2 956 pixels
Height : 2 160 pixels
Display aspect ratio : 4:3
Frame rate mode : Constant
Frame rate : 23.976 (24000/1001) FPS
Color space : YUV
Chroma subsampling : 4:2:0
Bit depth : 10 bits
Bits/(Pixel*Frame) : 0.155
Stream size : 17.4 GiB (94%)
Language : English
Default : Yes
Forced : No

Audio #1
ID : 2
Format : E-AC-3 JOC
Format/Info : Enhanced AC-3 with Joint Object Coding
Commercial name : Dolby Digital Plus with Dolby Atmos
Codec ID : A_EAC3
Duration : 1 h 45 min
Bit rate mode : Constant
Bit rate : 768 kb/s
Channel(s) : 6 channels
Channel layout : L R C LFE Ls Rs
Sampling rate : 48.0 kHz
Frame rate : 31.250 FPS (1536 SPF)
Compression mode : Lossy
Stream size : 578 MiB (3%)
Language : Italian
Service kind : Complete Main
Default : Yes
Forced : No
Complexity index : 16
Number of dynamic objects : 15
Bed channel count : 1 channel
Bed channel configuration : LFE

Audio #2
ID : 3
Format : E-AC-3 JOC
Format/Info : Enhanced AC-3 with Joint Object Coding
Commercial name : Dolby Digital Plus with Dolby Atmos
Codec ID : A_EAC3
Duration : 1 h 45 min
Bit rate mode : Constant
Bit rate : 768 kb/s
Channel(s) : 6 channels
Channel layout : L R C LFE Ls Rs
Sampling rate : 48.0 kHz
Frame rate : 31.250 FPS (1536 SPF)
Compression mode : Lossy
Stream size : 578 MiB (3%)
Language : English
Service kind : Complete Main
Default : No
Forced : No
Complexity index : 16
Number of dynamic objects : 15
Bed channel count : 1 channel
Bed channel configuration : LFE

Text #1
ID : 4
Format : UTF-8
Codec ID : S_TEXT/UTF8
Codec ID/Info : UTF-8 Plain Text
Duration : 1 h 31 min
Bit rate : 0 b/s
Count of elements : 3
Stream size : 59.0 Bytes (0%)
Title : Forced
Language : Italian
Default : Yes
Forced : Yes

Text #2
ID : 5
Format : UTF-8
Codec ID : S_TEXT/UTF8
Codec ID/Info : UTF-8 Plain Text
Duration : 1 h 44 min
Bit rate : 75 b/s
Count of elements : 1420
Stream size : 57.3 KiB (0%)
Language : Italian
Default : No
Forced : No

Text #3
ID : 6
Format : UTF-8
Codec ID : S_TEXT/UTF8
Codec ID/Info : UTF-8 Plain Text
Duration : 1 h 44 min
Bit rate : 85 b/s
Count of elements : 1567
Stream size : 65.6 KiB (0%)
Title : SDH
Language : Italian
Default : No
Forced : No

Text #4
ID : 7
Format : UTF-8
Codec ID : S_TEXT/UTF8
Codec ID/Info : UTF-8 Plain Text
Duration : 1 h 39 min
Bit rate : 75 b/s
Count of elements : 1413
Stream size : 55.2 KiB (0%)
Language : English
Default : No
Forced : No

Text #5
ID : 8
Format : UTF-8
Codec ID : S_TEXT/UTF8
Codec ID/Info : UTF-8 Plain Text
Duration : 1 h 41 min
Bit rate : 80 b/s
Count of elements : 1560
Stream size : 59.7 KiB (0%)
Title : SDH
Language : English
Default : No
Forced : No










[center.:: NOTE ::. [/center]


ATTENZIONE RELEASE DOLBY VISION SINGLE LAYER, NECESSARIA CONFIGURAZIONE HARDWARE SPECIFICA:
Release testata su Android Plex Nvidia Shield Pro 2019 e M9702 v3 "Chinoppo".

[/quote]

Related Torrents

Trackers

Tracker name
udp://tracker.opentrackr.org:1337/announce
http://tracker.files.fm:6969/announce
http://open.acgnxtracker.com:80/announce
udp://tracker2.dler.com:80/announce
udp://discord.heihachi.pw:6969/announce
udp://fe.dealclub.de:6969/announce
udp://mail.realliferpg.de:6969/announce
udp://movies.zsw.ca:6969/announce
udp://code2chicken.nl:6969/announce
udp://tracker.0x.tf:6969/announce
udp://tracker.zer0day.to:1337/announce
udp://tracker.leechers-paradise.org:6969/announce
udp://coppersurfer.tk:6969/announce
Torrent hash: 86594374C108E050257093C56B295295E90EB99A

0 Comment

Login to post comments