Little Monsters (2019) ITA-ENG Ac3 5 1 BDRip 1080p H264 [ArMor]


0

0
seeders: 9 leechers: 59 updated: 1 year ago
Added 1 year ago in Movies - Highres Movies
Downloaded 9 times.
Little Monsters (2019) ITA-ENG Ac3 5 1 BDRip 1080p H264 [ArMor]
  • Release date: 11 Oct 2019
  • Release year: 2019
  • Runtime: 93 mintues
  • Country: Australia, United States, United Kingdom
  • Keywords: psychotronic film, zombie, kindergarten teacher, kindergarten class
Plot:
Dave has decided to get over his recent breakup by seeking refuge in his nephew Felix, accompanying him on a school trip, among other things, to be able to get closer to one of the teachers, Miss Caroline. Everything seems normal, at least until a zombie invasion breaks out that will threaten Dave's plans. New horror movie icon Lupita Nyong'o nails it in this blend of comedy and gore.

Available in versions:
Other WEB-DL WEBRip BDRip x264 x265 720p 1080p

Files

Little.Monsters.2019.ITA-ENG.Bluray.1080p_ita_forced.srt (2.8 GB)
Little.Monsters.2019.ITA-ENG.Bluray.1080p_ita_forced.srt 512 B
ikdjh.jpg 119.3 KB
Little Monsters (2019) ITA-ENG Ac3 5.1 BDRip 1080p H264 [ArMor].mkv 2.8 GB

Description














PLOT: A washed-up musician teams up with a teacher and a kids show personality to protect young children from a sudden outbreak of zombies.

General
Unique ID : 250252513890046995522007401004676779321 (0xBC44E18A421823EE1BB399E406858D39)
Complete name : Little Monsters (2019) ITA-ENG Ac3 5.1 BDRip 1080p H264 [ArMor].mkv
Format : Matroska
Format version : Version 4
File size : 2.84 GiB
Duration : 1 h 34 min
Overall bit rate : 4 317 kb/s
Movie name : CineBlog1HD
Encoded date : UTC 2020-06-12 16:34:12
Writing application : HandBrake 1.3.2 2020050300
Writing library : Lavf58.29.100
ErrorDetectionType : Per level 1

Video
ID : 1
Format : AVC
Format/Info : Advanced Video Codec
Format profile : [email protected]
Format settings : CABAC / 4 Ref Frames
Format settings, CABAC : Yes
Format settings, Reference frames : 4 frames
Codec ID : V_MPEG4/ISO/AVC
Duration : 1 h 33 min
Bit rate : 3 500 kb/s
Width : 1 920 pixels
Height : 804 pixels
Display aspect ratio : 2.40:1
Frame rate mode : Constant
Frame rate : 23.976 (24000/1001) FPS
Color space : YUV
Chroma subsampling : 4:2:0
Bit depth : 8 bits
Scan type : Progressive
Bits/(Pixel*Frame) : 0.095
Stream size : 2.19 GiB (77%)
Writing library : x264 core 157 r2935 545de2f
Encoding settings : cabac=1 / ref=2 / deblock=1:0:0 / analyse=0x1:0x111 / me=hex / subme=6 / psy=1 / psy_rd=1.00:0.00 / mixed_ref=1 / me_range=16 / chroma_me=1 / trellis=1 / 8x8dct=0 / cqm=0 / deadzone=21,11 / fast_pskip=1 / chroma_qp_offset=-2 / threads=18 / lookahead_threads=3 / sliced_threads=0 / nr=0 / decimate=1 / interlaced=0 / bluray_compat=0 / constrained_intra=0 / bframes=3 / b_pyramid=2 / b_adapt=1 / b_bias=0 / direct=1 / weightb=1 / open_gop=0 / weightp=1 / keyint=240 / keyint_min=24 / scenecut=40 / intra_refresh=0 / rc_lookahead=30 / rc=abr / mbtree=1 / bitrate=3500 / ratetol=1.0 / qcomp=0.60 / qpmin=0 / qpmax=69 / qpstep=4 / vbv_maxrate=50000 / vbv_bufsize=62500 / nal_hrd=none / filler=0 / ip_ratio=1.40 / aq=1:1.00
Default : Yes
Forced : No
Color range : Limited
Color primaries : BT.709
Transfer characteristics : BT.709
Matrix coefficients : BT.709

Audio #1
ID : 2
Format : AC-3
Format/Info : Audio Coding 3
Commercial name : Dolby Digital
Codec ID : A_AC3
Duration : 1 h 34 min
Bit rate mode : Constant
Bit rate : 448 kb/s
Channel(s) : 6 channels
Channel layout : L R C LFE Ls Rs
Sampling rate : 48.0 kHz
Frame rate : 31.250 FPS (1536 SPF)
Compression mode : Lossy
Stream size : 302 MiB (10%)
Title : WEDBL
Language : Italian
Service kind : Complete Main
Default : Yes
Forced : No

Audio #2
ID : 3
Format : AC-3
Format/Info : Audio Coding 3
Commercial name : Dolby Digital
Codec ID : A_AC3
Duration : 1 h 34 min
Bit rate mode : Constant
Bit rate : 448 kb/s
Channel(s) : 6 channels
Channel layout : L R C LFE Ls Rs
Sampling rate : 48.0 kHz
Frame rate : 31.250 FPS (1536 SPF)
Compression mode : Lossy
Stream size : 302 MiB (10%)
Title : DTS
Language : English
Service kind : Complete Main
Default : No
Forced : No


Related Torrents

Trackers

Tracker name
udp://tracker.coppersurfer.tk:6969/announce
udp://tracker.leechers-paradise.org:6969/announce
udp://tracker.cyberia.is:6969/announce
udp://tracker.iamhansen.xyz:2000/announce
udp://p4p.arenabg.com:1337/announce
udp://explodie.org:6969/announce
udp://tracker.opentrackr.org:1337/announce
udp://tracker.tiny-vps.com:6969/announce
udp://exodus.desync.com:6969/announce
udp://tracker.torrent.eu.org:451/announce
udp://tracker.moeking.me:6969/announce
udp://ipv4.tracker.harry.lu:80/announce
udp://open.stealth.si:80/announce
udp://9.rarbg.to:2710/announce
udp://tracker.zer0day.to:1337/announce
udp://tracker.leechers-paradise.org:6969/announce
udp://coppersurfer.tk:6969/announce
Torrent hash: 1A72A266C75D0EB5A164BB4AF31EF59C21F15B74

0 Comment

Login to post comments