Let the Lion Roar 2014 1080p WEBRip x264-RARBG


0

0
seeders: 3 leechers: 0 updated: 6 months ago
Added 6 months ago in Movies - Highres Movies
Downloaded 0 time.
Let the Lion Roar 2014 1080p WEBRip x264-RARBG
  • Release date: 19 Sep 2014
  • Release year: 2014
  • Runtime: 65 mintues
  • Country: United States, United Kingdom
  • Keywords: religious history, christianity, christian film, reenactment
Plot:
Uncover one of the greatest and darkest deceptions of our time - the conspiracy to cover up the Church's true identity.

Available in versions:
720p 1080p

Files

Let the Lion Roar 2014 1080p WEBRip x264-RARBG (Size: 1.2 GB)
Let.the.Lion.Roar.2014.1080p.WEBRip.x264-RARBG.mp4 1.2 GB
Poster.jpg 73.9 KB

Description

Uncover one of the greatest and darkest deceptions of our time - the conspiracy to cover up the Church's true identity.


https://www.imdb.com/title/tt2897102/

https://www.reddit.com/user/ConspiracyTorrents/posts/









Quote:

Video
ID : 1
Format : AVC
Format/Info : Advanced Video Codec
Format profile : [email protected]
Format settings : CABAC / 4 Ref Frames
Format settings, CABAC : Yes
Format settings, Reference frames : 4 frames
Codec ID : avc1
Codec ID/Info : Advanced Video Coding
Duration : 1 h 4 min
Bit rate : 2 500 kb/s
Width : 1 920 pixels
Height : 1 080 pixels
Display aspect ratio : 16:9
Frame rate mode : Constant
Frame rate : 29.970 (29970/1000) FPS
Color space : YUV
Chroma subsampling : 4:2:0
Bit depth : 8 bits
Scan type : Progressive
Bits/(Pixel*Frame) : 0.040
Stream size : 1.13 GiB (91%)
Writing library : x264 core 152 r2851M ba24899
Encoding settings : cabac=1 / ref=4 / deblock=1:-1:-1 / analyse=0x3:0x113 / me=umh / subme=9 / psy=1 / psy_rd=1.00:0.15 / mixed_ref=1 / me_range=24 / chroma_me=1 / trellis=2 / 8x8dct=1 / cqm=0 / deadzone=21,11 / fast_pskip=1 / chroma_qp_offset=-3 / threads=16 / lookahead_threads=4 / sliced_threads=0 / nr=0 / decimate=1 / interlaced=0 / bluray_compat=0 / constrained_intra=0 / bframes=3 / b_pyramid=2 / b_adapt=2 / b_bias=0 / direct=3 / weightb=1 / open_gop=0 / weightp=2 / keyint=250 / keyint_min=25 / scenecut=40 / intra_refresh=0 / rc_lookahead=50 / rc=2pass / mbtree=1 / bitrate=2500 / ratetol=1.0 / qcomp=0.60 / qpmin=0 / qpmax=69 / qpstep=4 / cplxblur=20.0 / qblur=0.5 / vbv_maxrate=31250 / vbv_bufsize=31250 / nal_hrd=none / filler=0 / ip_ratio=1.40 / aq=3:1.00
Encoded date : UTC 2020-11-09 18:38:29
Tagged date : UTC 2020-11-09 18:38:29
Codec configuration box : avcC

Audio
ID : 2
Format : AAC LC
Format/Info : Advanced Audio Codec Low Complexity
Codec ID : mp4a-40-2
Duration : 1 h 4 min
Bit rate mode : Constant
Bit rate : 224 kb/s
Channel(s) : 2 channels
Channel layout : L R
Sampling rate : 48.0 kHz
Frame rate : 46.875 FPS (1024 SPF)
Compression mode : Lossy
Stream size : 104 MiB (8%)
Language : English
Default : Yes
Alternate group : 1
Encoded date : UTC 2020-11-09 18:38:29
Tagged date : UTC 2020-11-09 18:38:29

Related Torrents

Trackers

Tracker name
http://p2p.arenabg.ch:2710/2fe5d3a4213ef551d6a111e0aae91871/announce
http://p2p.arenabg.com:2710/2fe5d3a4213ef551d6a111e0aae91871/announce
udp://p4p.arenabg.ch:1337/announce
udp://p4p.arenabg.com:1337/announce
udp://tracker.zer0day.to:1337/announce
udp://tracker.leechers-paradise.org:6969/announce
udp://coppersurfer.tk:6969/announce
Torrent hash: D673A71D4F3A1C9E82FABFD0E2EC3179DFCB51A6

0 Comment

Login to post comments