Kaamelott First Installment 2021 FRENCH 1080p BluRay x264 DTS-HD MA 7 1-NOGRP


0

0
seeders: 0 leechers: 0 updated: 1 week ago
Added 1 week ago in Movies - Highres Movies
Downloaded 1 time.
Kaamelott First Installment 2021 FRENCH 1080p BluRay x264 DTS-HD MA 7 1-NOGRP
  • Release date: 21 Jul 2021
  • Release year: 2021
  • Runtime: 120 mintues
  • Country: France, Belgium
  • Keywords: sir lancelot du lac character, king arthur character, brittany, boat, castle
Plot:
The sequel on the big screen to the cult series of Alexandre Astier, an offbeat version of the legend of the Knights of the Round Table. Hidden in Rome, King Arthur plans his comeback to oppose the army of his former friend Lancelot.

Available in versions:
720p 1080p

Files

Kaamelott.First.Installment.2021.FRENCH.1080p.BluRay.x264.DTS-HD.MA.7.1-NOGRP.mkv (18.1 GB)
Kaamelott.First.Installment.2021.FRENCH.1080p.BluRay.x264.DTS-HD.MA.7.1-NOGRP.mkv 18.1 GB
RARBG.txt 0 B

Description

Screens... (click to enlarge):









Infolink -> https://www.imdb.com/title/tt9844322/

Mediainfo


Quote:

Video
ID : 1
Format : AVC
Format/Info : Advanced Video Codec
Format profile : [email protected]
Format settings : CABAC / 4 Ref Frames
Format settings, CABAC : Yes
Format settings, Reference frames : 4 frames
Codec ID : V_MPEG4/ISO/AVC
Duration : 2 h 0 min
Bit rate : 16.9 Mb/s
Width : 1 920 pixels
Height : 804 pixels
Display aspect ratio : 2.40:1
Frame rate mode : Constant
Frame rate : 24.000 FPS
Color space : YUV
Chroma subsampling : 4:2:0
Bit depth : 8 bits
Scan type : Progressive
Bits/(Pixel*Frame) : 0.457
Stream size : 14.2 GiB (79%)
Writing library : x264 core 164 r3065+62M b012ed0 devel [(8 & 10)[email protected] X86_64]
Encoding settings : cabac=1 / ref=4 / deblock=1:-3:-3 / analyse=0x3:0x133 / me=umh / subme=11 / psy=1 / fade_compensate=0.00 / psy_rd=1.00:0.00 / mixed_ref=1 / me_range=32 / chroma_me=1 / trellis=2 / 8x8dct=1 / cqm=0 / deadzone=21,11 / fast_pskip=1 / chroma_qp_offset=-2 / threads=32 / lookahead_threads=6 / sliced_threads=0 / nr=0 / decimate=1 / interlaced=0 / bluray_compat=0 / constrained_intra=0 / fgo=0 / bframes=10 / b_pyramid=2 / b_adapt=2 / b_bias=0 / direct=3 / weightb=1 / open_gop=0 / weightp=2 / keyint=250 / keyint_min=24 / scenecut=40 / intra_refresh=0 / rc=crf / mbtree=0 / crf=15.5000 / qcomp=0.65 / qpmin=0:0:0 / qpmax=69:69:69 / qpstep=4 / ip_ratio=1.25 / pb_ratio=1.20 / aq=1:0.60 / aq-sensitivity=10.00 / aq-factor=1.00:1.00:1.00 / aq2=0 / aq3=0
Language : French
Default : Yes
Forced : No

Audio
ID : 2
Format : DTS XLL
Format/Info : Digital Theater Systems
Commercial name : DTS-HD Master Audio
Codec ID : A_DTS
Duration : 2 h 0 min
Bit rate mode : Variable
Bit rate : 4 604 kb/s
Channel(s) : 8 channels
Channel layout : C L R LFE Lb Rb Lss Rss
Sampling rate : 48.0 kHz
Frame rate : 93.750 FPS (512 SPF)
Bit depth : 24 bits
Compression mode : Lossless
Stream size : 3.86 GiB (21%)
Title : DTS-HD MA 7.1
Language : French
Default : No
Forced : No

Text #1
ID : 3
Format : UTF-8
Codec ID : S_TEXT/UTF8
Codec ID/Info : UTF-8 Plain Text
Duration : 1 h 59 min
Bit rate : 50 b/s
Count of elements : 1861
Stream size : 44.4 KiB (0%)
Title : SRT
Language : English
Default : Yes
Forced : No

Text #2
ID : 4
Format : PGS
Muxing mode : zlib
Codec ID : S_HDMV/PGS
Codec ID/Info : Picture based subtitle format used on BDs/HD-DVDs
Duration : 1 h 59 min
Bit rate : 32.0 kb/s
Count of elements : 3742
Stream size : 27.4 MiB (0%)
Language : English
Default : No
Forced : No

Text #3
ID : 5
Format : PGS
Muxing mode : zlib
Codec ID : S_HDMV/PGS
Codec ID/Info : Picture based subtitle format used on BDs/HD-DVDs
Duration : 9 s 792 ms
Bit rate : 20.9 kb/s
Count of elements : 4
Stream size : 25.0 KiB (0%)
Title : forced only
Language : French
Default : No
Forced : No

Text #4
ID : 6
Format : PGS
Muxing mode : zlib
Codec ID : S_HDMV/PGS
Codec ID/Info : Picture based subtitle format used on BDs/HD-DVDs
Duration : 1 h 59 min
Bit rate : 51.1 kb/s
Count of elements : 5141
Stream size : 43.8 MiB (0%)
Title : SDH
Language : French
Default : No
Forced : No

Menu
00:00:00.000 : :Chapter 01
00:10:17.458 : :Chapter 02
00:19:07.000 : :Chapter 03
00:32:05.208 : :Chapter 04
00:39:52.917 : :Chapter 05
00:51:16.667 : :Chapter 06
00:59:44.333 : :Chapter 07
01:08:53.625 : :Chapter 08
01:19:52.208 : :Chapter 09
01:28:34.167 : :Chapter 10
01:36:50.458 : :Chapter 11
01:46:05.042 : :Chapter 12

Related Torrents

Trackers

Tracker name
http://tracker.trackerfix.com:80/announce
udp://9.rarbg.me:2850/announce
udp://9.rarbg.to:2930/announce
udp://tracker.thinelephant.org:12790/announce
udp://tracker.fatkhoala.org:13720/announce
udp://tracker.zer0day.to:1337/announce
udp://tracker.leechers-paradise.org:6969/announce
udp://coppersurfer.tk:6969/announce
Torrent hash: 6DBB5E36683BF0F514E5FBEFBF181E4F66D7C79C

0 Comment

Login to post comments