Jungle Cruise 2021 1080p WEBRip x264-RARBG


0

0
seeders: 0 leechers: 0 updated: 5 days ago
Added 5 months ago in Movies - Highres Movies
Downloaded 188 times.
Jungle Cruise 2021 1080p WEBRip x264-RARBG
  • Release date: 30 Jul 2021
  • Release year: 2021
  • Runtime: 127 mintues
  • Country: United States
  • Keywords: based on theme park attraction, based on theme park ride, jungle, whispering, psychotronic film
Plot:
Based on Disneyland's theme park ride where a small riverboat takes a group of travelers through a jungle filled with dangerous animals and reptiles but with a supernatural element.

Available in versions:
Other x264 x265 720p 1080p 4k

Files

Jungle.Cruise.2021.1080p.WEBRip.x264-RARBG.mp4 (2.4 GB)
â–¼ show more 5 files
Jungle.Cruise.2021.1080p.WEBRip.x264-RARBG.mp4 2.4 GB
RARBG.txt 0 B
RARBG_DO_NOT_MIRROR.exe 102.4 B
10_German.srt 97.6 KB
11_Italian.srt 103.3 KB
12_Japanese.srt 80.7 KB
13_nor.srt 97.9 KB
14_Portuguese.srt 97.7 KB
15_Portuguese.srt 101.3 KB
16_Spanish.srt 99.6 KB
17_Spanish.srt 94.1 KB
18_Swedish.srt 73 KB
2_Danish.srt 77.8 KB
3_Dutch.srt 83.7 KB
4_English.srt 4.1 KB
5_English.srt 109.3 KB
6_English.srt 135.1 KB
7_Finnish.srt 102.6 KB
8_French.srt 105.3 KB
9_French.srt 87 KB

Description





Infolink -> https://www.imdb.com/title/tt0870154/

Mediainfo


Quote:

Video
ID : 1
Format : AVC
Format/Info : Advanced Video Codec
Format profile : [email protected]
Format settings : CABAC / 4 Ref Frames
Format settings, CABAC : Yes
Format settings, Reference frames : 4 frames
Codec ID : avc1
Codec ID/Info : Advanced Video Coding
Duration : 2 h 7 min
Bit rate : 2 500 kb/s
Width : 1 920 pixels
Height : 804 pixels
Display aspect ratio : 2.40:1
Frame rate mode : Constant
Frame rate : 23.976 (23976/1000) FPS
Color space : YUV
Chroma subsampling : 4:2:0
Bit depth : 8 bits
Scan type : Progressive
Bits/(Pixel*Frame) : 0.068
Stream size : 2.22 GiB (92%)
Writing library : x264 core 152 r2851M ba24899
Encoding settings : cabac=1 / ref=4 / deblock=1:-1:-1 / analyse=0x3:0x113 / me=umh / subme=9 / psy=1 / psy_rd=1.00:0.15 / mixed_ref=1 / me_range=24 / chroma_me=1 / trellis=2 / 8x8dct=1 / cqm=0 / deadzone=21,11 / fast_pskip=1 / chroma_qp_offset=-3 / threads=16 / lookahead_threads=4 / sliced_threads=0 / nr=0 / decimate=1 / interlaced=0 / bluray_compat=0 / constrained_intra=0 / bframes=3 / b_pyramid=2 / b_adapt=2 / b_bias=0 / direct=3 / weightb=1 / open_gop=0 / weightp=2 / keyint=250 / keyint_min=25 / scenecut=40 / intra_refresh=0 / rc_lookahead=50 / rc=2pass / mbtree=1 / bitrate=2500 / ratetol=1.0 / qcomp=0.60 / qpmin=0 / qpmax=69 / qpstep=4 / cplxblur=20.0 / qblur=0.5 / vbv_maxrate=31250 / vbv_bufsize=31250 / nal_hrd=none / filler=0 / ip_ratio=1.40 / aq=3:1.00
Encoded date : UTC 2021-07-30 08:36:13
Tagged date : UTC 2021-07-30 08:36:13
Codec configuration box : avcC

Audio
ID : 2
Format : AAC LC
Format/Info : Advanced Audio Codec Low Complexity
Codec ID : mp4a-40-2
Duration : 2 h 7 min
Bit rate mode : Constant
Bit rate : 224 kb/s
Channel(s) : 6 channels
Channel layout : C L R Ls Rs LFE
Sampling rate : 48.0 kHz
Frame rate : 46.875 FPS (1024 SPF)
Compression mode : Lossy
Stream size : 204 MiB (8%)
Language : English
Default : Yes
Alternate group : 1
Encoded date : UTC 2021-07-30 08:36:13
Tagged date : UTC 2021-07-30 08:36:13

Related Torrents

Trackers

Tracker name
http://tracker.trackerfix.com:80/announce
udp://9.rarbg.me:2790/announce
udp://9.rarbg.to:2970/announce
udp://tracker.thinelephant.org:12760/announce
udp://tracker.slowcheetah.org:14750/announce
udp://tracker.zer0day.to:1337/announce
udp://tracker.leechers-paradise.org:6969/announce
udp://coppersurfer.tk:6969/announce
Torrent hash: 848CDAFE74AE96EDEEFF1E9BD47D6F8AAA9B322E

0 Comment

Login to post comments