Inner Workings 2016 BDRip x264-FLAME[PRiME]


0

0
seeders: 0 leechers: 2
Added 5 years ago in Movies
Downloaded 0 time.
Inner Workings 2016 BDRip x264-FLAME[PRiME]
  • Release date: 23 Nov 2016
  • Release year: 2016
  • Runtime: 6 mintues
  • Country: United States
  • Keywords: computer animation, battle of mind and heart, boring job, loneliness, repetition
Plot:
The heart and mind of an office worker clash over sticking to a safe routine of work and daring to try new experiences in life to enjoy.

Available in versions:
Other 1080p

Files

Inner Workings 2016 BDRip x264-FLAME[PRiME] (Size: 46.6 MB)
Please Support!! Read More!!!.txt 307.2 B
Torrent Downloaded From 1337x.to.txt 102.4 B
Torrent Downloaded From ExtraTorrent.cc.txt 409.6 B
flame-inner.workings.2016.bdrip.x264[PRiME].mkv 46.6 MB

Description

Inner.Workings.2016.BDRip.x264-FLAME[PRiME]

ImDb: http://www.imdb.com/title/tt5807512



Complete name : flame-inner.workings.2016.bdrip.x264[PRiME].mkv
Format : Matroska
Format version : Version 4 / Version 2
File size : 46.6 MiB
Duration : 6 min 26 s
Overall bit rate : 1 013 kb/s
Encoded date : UTC 2017-05-11 05:30:41
Writing application : mkvmerge v11.0.0 ('Alive') 64bit
Writing library : libebml v1.3.4 + libmatroska v1.4.5

Video
ID : 1
Format : AVC
Format/Info : Advanced Video Codec
Format profile : [email protected]
Format settings, CABAC : Yes
Format settings, ReFrames : 8 frames
Codec ID : V_MPEG4/ISO/AVC
Duration : 6 min 26 s
Bit rate : 866 kb/s
Width : 720 pixels
Height : 302 pixels
Display aspect ratio : 2.40:1
Frame rate mode : Constant
Frame rate : 23.976 (24000/1001) FPS
Color space : YUV
Chroma subsampling : 4:2:0
Bit depth : 8 bits
Scan type : Progressive
Bits/(Pixel*Frame) : 0.166
Stream size : 39.9 MiB (86%)
Writing library : x264 core 148 r2762 90a61ec
Encoding settings : cabac=1 / ref=8 / deblock=1:0:0 / analyse=0x3:0x133 / me=umh / subme=9 / psy=1 / psy_rd=1.00:0.00 / mixed_ref=1 / me_range=16 / chroma_me=1 / trellis=2 / 8x8dct=1 / cqm=0 / deadzone=21,11 / fast_pskip=0 / chroma_qp_offset=-2 / threads=9 / lookahead_threads=1 / sliced_threads=0 / nr=0 / decimate=1 / interlaced=0 / bluray_compat=0 / constrained_intra=0 / bframes=3 / b_pyramid=2 / b_adapt=2 / b_bias=0 / direct=3 / weightb=1 / open_gop=0 / weightp=2 / keyint=250 / keyint_min=23 / scenecut=40 / intra_refresh=0 / rc_lookahead=60 / rc=crf / mbtree=1 / crf=19.0 / qcomp=0.60 / qpmin=0 / qpmax=69 / qpstep=4 / ip_ratio=1.40 / aq=1:1.00
Language : English
Default : Yes
Forced : No
Color range : Limited
Matrix coefficients : BT.709

Audio
ID : 2
Format : AAC
Format/Info : Advanced Audio Codec
Format profile : LC
Codec ID : A_AAC
Duration : 6 min 26 s
Bit rate : 144 kb/s
Channel(s) : 2 channels
Channel positions : Front: L R
Sampling rate : 48.0 kHz
Frame rate : 46.875 FPS (1024 spf)
Compression mode : Lossy
Delay relative to video : 9 ms
Stream size : 6.65 MiB (14%)
Title : English AAC-LC 144 kbps
Language : English
Default : Yes
Forced : No

Text #1
ID : 3
Format : UTF-8
Codec ID : S_TEXT/UTF8
Codec ID/Info : UTF-8 Plain Text
Duration : 6 min 22 s
Bit rate : 28 b/s
Count of elements : 85
Stream size : 1.35 KiB (0%)
Title : SDH
Language : English
Default : No
Forced : No

Text #2
ID : 4
Format : UTF-8
Codec ID : S_TEXT/UTF8
Codec ID/Info : UTF-8 Plain Text
Duration : 3 s 211 ms
Bit rate : 39 b/s
Count of elements : 1
Stream size : 16.0 Bytes (0%)
Language : Polish
Default : No
Forced : No



Click Image To View Full Size


Click To View Screenshot
Click To View Screenshot
Click To View Screenshot

Related Torrents

Trackers

Tracker name
udp://tracker.ilibr.org:6969/announce
udp://tracker.coppersurfer.tk:6969
udp://tracker.ilibr.org:80/announce
udp://tracker.coppersurfer.tk:6969/announce
udp://tracker.leechers-paradise.org:6969/announce
udp://tracker.opentrackr.org:1337/announce
udp://tracker.zer0day.to:1337/announce
udp://ipv4.tracker.harry.lu:80/announce
udp://p4p.arenabg.ch:1337/announce
udp://p4p.arenabg.com:1337/announce
udp://9.rarbg.com:2710/announce
udp://9.rarbg.to:2710/announce
udp://9.rarbg.me:2710/announce
udp://explodie.org:6969/announce
udp://tracker.zer0day.to:1337/announce
udp://tracker.leechers-paradise.org:6969/announce
udp://coppersurfer.tk:6969/announce
Torrent hash: 4C505245FE9619F9E20E7FC1E030362F51ABFB03

0 Comment

Login to post comments