Inner Workings 2016 1080p BluRay x264-HDEX[PRiME]


0

0
seeders: 0 leechers: 0
Added 5 years ago in Movies
Downloaded 0 time.
Inner Workings 2016 1080p BluRay x264-HDEX[PRiME]
  • Release date: 23 Nov 2016
  • Release year: 2016
  • Runtime: 6 mintues
  • Country: United States
  • Keywords: computer animation, battle of mind and heart, boring job, loneliness, repetition
Plot:
The heart and mind of an office worker clash over sticking to a safe routine of work and daring to try new experiences in life to enjoy.

Available in versions:
Other 1080p

Files

Please Support!! Read More!!!.txt (522.3 MB)
Please Support!! Read More!!!.txt 204.8 B
h-inner1080p.sample[PRiME].mkv 74.2 MB
Torrent Downloaded From 1337x.to.txt 102.4 B
Torrent Downloaded From ExtraTorrent.cc.txt 409.6 B
h-inner1080p[PRiME].mkv 448.2 MB

Description

Inner.Workings.2016.1080p.BluRay.x264-HDEX[PRiME]

ImDb: http://www.imdb.com/title/tt5807512



Complete name : h-inner1080p[PRiME].mkv
Format : Matroska
Format version : Version 4 / Version 2
File size : 448 MiB
Duration : 6 min 26 s
Overall bit rate : 9 734 kb/s
Encoded date : UTC 2017-03-31 18:40:46
Writing application : mkvmerge v10.0.0 ('To Drown In You') 64bit
Writing library : libebml v1.3.4 + libmatroska v1.4.5

Video
ID : 1
Format : AVC
Format/Info : Advanced Video Codec
Format profile : [email protected]
Format settings, CABAC : Yes
Format settings, ReFrames : 5 frames
Codec ID : V_MPEG4/ISO/AVC
Duration : 6 min 26 s
Bit rate : 8 215 kb/s
Width : 1 920 pixels
Height : 808 pixels
Display aspect ratio : 2.40:1
Frame rate mode : Constant
Frame rate : 23.976 (24000/1001) FPS
Color space : YUV
Chroma subsampling : 4:2:0
Bit depth : 8 bits
Scan type : Progressive
Bits/(Pixel*Frame) : 0.221
Stream size : 379 MiB (84%)
Title : English
Writing library : x264 core 148 r2762 90a61ec
Encoding settings : cabac=1 / ref=5 / deblock=1:0:0 / analyse=0x3:0x113 / me=umh / subme=8 / psy=1 / psy_rd=1.00:0.00 / mixed_ref=1 / me_range=16 / chroma_me=1 / trellis=1 / 8x8dct=1 / cqm=0 / deadzone=21,11 / fast_pskip=1 / chroma_qp_offset=-2 / threads=12 / lookahead_threads=2 / sliced_threads=0 / nr=0 / decimate=1 / interlaced=0 / bluray_compat=0 / constrained_intra=0 / bframes=3 / b_pyramid=2 / b_adapt=1 / b_bias=0 / direct=3 / weightb=1 / open_gop=0 / weightp=2 / keyint=240 / keyint_min=24 / scenecut=40 / intra_refresh=0 / rc_lookahead=50 / rc=2pass / mbtree=1 / bitrate=8215 / ratetol=1.0 / qcomp=0.60 / qpmin=0 / qpmax=69 / qpstep=4 / cplxblur=20.0 / qblur=0.5 / ip_ratio=1.40 / aq=1:1.00
Language : English
Default : Yes
Forced : No

Audio
ID : 2
Format : DTS
Format/Info : Digital Theater Systems
Mode : 16
Format settings, Endianness : Big
Codec ID : A_DTS
Duration : 6 min 26 s
Bit rate mode : Constant
Bit rate : 1 509 kb/s
Channel(s) : 6 channels
Channel positions : Front: L C R, Side: L R, LFE
Sampling rate : 48.0 kHz
Frame rate : 93.750 FPS (512 spf)
Bit depth : 24 bits
Compression mode : Lossy
Stream size : 69.5 MiB (16%)
Title : English
Language : English
Default : Yes
Forced : No



Click Image To View Full Size


Click To View Screenshot
Click To View Screenshot
Click To View Screenshot

Related Torrents

Trackers

Tracker name
udp://tracker.ilibr.org:6969/announce
udp://tracker.coppersurfer.tk:6969
udp://tracker.ilibr.org:80/announce
udp://tracker.coppersurfer.tk:6969/announce
udp://tracker.leechers-paradise.org:6969/announce
udp://tracker.opentrackr.org:1337/announce
udp://tracker.zer0day.to:1337/announce
udp://ipv4.tracker.harry.lu:80/announce
udp://p4p.arenabg.ch:1337/announce
udp://p4p.arenabg.com:1337/announce
udp://9.rarbg.com:2710/announce
udp://9.rarbg.to:2710/announce
udp://9.rarbg.me:2710/announce
udp://explodie.org:6969/announce
udp://tracker.zer0day.to:1337/announce
udp://tracker.leechers-paradise.org:6969/announce
udp://coppersurfer.tk:6969/announce
Torrent hash: A8D0D7332CF605D8EC9E08EED50439AF9B853E0B

0 Comment

Login to post comments