Hawkeye (2021) S01E01 720p 10bit DSNP WEBRip x265 HEVC [Org Hindi DDP 5 1 ~192Kbps + English DDP 5 1] ESub ~ Immortal


0

0
seeders: 62 leechers: 30 updated: 20 hours ago
Added 1 week ago in Movies - Dubbed Movies
Downloaded 39 times.
Hawkeye (2021) S01E01 720p 10bit DSNP WEBRip x265 HEVC [Org Hindi DDP 5 1 ~192Kbps + English DDP 5 1] ESub ~ Immortal

Files

Hawkeye (2021) S01E01 720p 10bit DSNP WEBRip x265 HEVC [Org Hindi DDP 5.1 ~192Kbps + English DDP 5.1] ESub ~ Immortal.mkv (443.2 MB)
Hawkeye (2021) S01E01 720p 10bit DSNP WEBRip x265 HEVC [Org Hindi DDP 5.1 ~192Kbps + English DDP 5.1] ESub ~ Immortal.mkv 443.2 MB

Description

Hawkeye (2021) S01E01 720p 10bit DSNP WEBRip x265 HEVC [Org Hindi DDP 5.1 ~192Kbps + English DDP 5.1] ESub ~ Immortal



Video
ID : 1
Format : HEVC
Format/Info : High Efficiency Video Coding
Format profile : Main [email protected]@Main
Codec ID : V_MPEGH/ISO/HEVC
Duration : 47 min 24 s
Bit rate : 919 kb/s
Width : 1 280 pixels
Height : 536 pixels
Display aspect ratio : 2.40:1
Frame rate mode : Constant
Frame rate : 24.000 FPS
Color space : YUV
Chroma subsampling : 4:2:0
Bit depth : 10 bits
Bits/(Pixel*Frame) : 0.056
Stream size : 312 MiB (70%)
Title : Encoded By ~ Immortal
Default : No
Forced : No
Color range : Limited
Color primaries : BT.709
Transfer characteristics : BT.709
Matrix coefficients : BT.709

Audio #1
ID : 2
Format : E-AC-3
Format/Info : Enhanced AC-3
Commercial name : Dolby Digital Plus
Codec ID : A_EAC3
Duration : 47 min 24 s
Bit rate mode : Constant
Bit rate : 192 kb/s
Channel(s) : 6 channels
Channel layout : L R C LFE Ls Rs
Sampling rate : 48.0 kHz
Frame rate : 31.250 FPS (1536 SPF)
Compression mode : Lossy
Delay relative to video : -21 ms
Stream size : 65.1 MiB (15%)
Title : Org DSNP Hindi DDP 5.1 192Kbps ~ Immortal
Language : Hindi
Service kind : Complete Main
Default : Yes
Forced : Yes

Audio #2
ID : 3
Format : E-AC-3
Format/Info : Enhanced AC-3
Commercial name : Dolby Digital Plus
Codec ID : A_EAC3
Duration : 47 min 24 s
Bit rate mode : Constant
Bit rate : 192 kb/s
Channel(s) : 6 channels
Channel layout : L R C LFE Ls Rs
Sampling rate : 48.0 kHz
Frame rate : 31.250 FPS (1536 SPF)
Compression mode : Lossy
Delay relative to video : -21 ms
Stream size : 65.1 MiB (15%)
Title : English DDP 5.1 ~ Immortal
Language : English
Service kind : Complete Main
Default : No
Forced : No

Text
ID : 4
Format : UTF-8
Codec ID : S_TEXT/UTF8
Codec ID/Info : UTF-8 Plain Text
Duration : 44 min 51 s
Bit rate : 59 b/s
Count of elements : 632
Stream size : 19.4 KiB (0%)
Title : English Sub
Language : English
Default : Yes
Forced : Yes












Quote:

???? Encoding Source :— Hawkeye.2021.S01E01.Never.Meet.Your.Heroes.1080p.DSNP.WEB-DL.Multi.DDP5.1.x264-REVOLT - 1.4 GB ????

Trackers

Tracker name
udp://tracker.opentrackr.org:1337/announce
udp://9.rarbg.com:2810/announce
udp://tracker.openbittorrent.com:6969/announce
udp://exodus.desync.com:6969/announce
http://tracker.openbittorrent.com:80/announce
http://openbittorrent.com:80/announce
udp://www.torrent.eu.org:451/announce
udp://vibe.community:6969/announce
udp://u.wwwww.wtf:1/announce
udp://tracker1.bt.moack.co.kr:80/announce
udp://tracker0.ufibox.com:6969/announce
udp://tracker.zerobytes.xyz:1337/announce
udp://tracker.torrent.eu.org:451/announce
udp://tracker.moeking.me:6969/announce
udp://tracker.zer0day.to:1337/announce
udp://tracker.leechers-paradise.org:6969/announce
udp://coppersurfer.tk:6969/announce
Torrent hash: 8296614A9266936EB827EC7198FD49C5700FB5EE

0 Comment

Login to post comments