Hannibal (2001) (2160p x265 HEVC 10bit HDR UHD BluRay DTS-HD MA 5 1) [Prof]


0

0
seeders: 4 leechers: 2 updated: 3 days ago
Added 3 days ago in Movies - Highres Movies
Downloaded 1 time.
Hannibal (2001) (2160p x265 HEVC 10bit HDR UHD BluRay DTS-HD MA 5 1) [Prof]
  • Release date: 9 Feb 2001
  • Release year: 2001
  • Runtime: 131 mintues
  • Country: United States, United Kingdom, Italy
  • Budget: $87,000,000
Plot:
The final chapter of the Dr. Hannibal Lecter quadrilogy, the murdering cannibal. He is presently in Italy, and works as a curator at a museum. Clarice Starling (Julianne Moore), the F.B.I. Agent who he aided to apprehend a serial killer, was placed in charge of an operation, but when one of her men botches it, she's called to the mat by the Bureau. One high ranking official, Paul Krendler (Ray Liotta) has it in for her. But she gets a reprieve because Mason Verger (Gary Oldman), one of Lecter's victims who is looking to get back at Lecter for what Lecter did to him, wants to use Starling to lure him out. When Lecter sends her a note, she learns that he's in Italy, so she asks the Police to keep an eye out for him. But a corrupt Policeman, who wants to get the reward that Verger placed on him, tells Verger where he is, but they fail to get him. Later, Verger decides to frame Starling, which makes Lecter return to the U.S., and the race to get Lecter begins.

Available in versions:
Other BDRip x264 x265 720p 1080p 4k

Files

Hannibal (2001).mkv (30 GB)
Hannibal (2001).mkv 30 GB

Description





General

Format : Matroska
Format version : Version 4
File size : 30.0 GiB
Duration : 2 h 11 min
Overall bit rate mode : Variable
Overall bit rate : 32.6 Mb/s
Movie name : Hannibal (2001)
Encoded date : UTC 2021-11-25 03:53:34
Writing application : mkvmerge v59.0.0 ('Shining Star') 64-bit
Writing library : libebml v1.4.2 + libmatroska v1.6.4

Video
ID : 1
Format : HEVC
Format/Info : High Efficiency Video Coding
Format profile : Main [email protected]@Main
HDR format : SMPTE ST 2086, HDR10 compatible
Codec ID : V_MPEGH/ISO/HEVC
Duration : 2 h 11 min
Bit rate : 28.6 Mb/s
Width : 3 840 pixels
Height : 2 064 pixels
Display aspect ratio : 1.85:1
Frame rate mode : Constant
Frame rate : 24.000 FPS
Color space : YUV
Chroma subsampling : 4:2:0 (Type 2)
Bit depth : 10 bits
Bits/(Pixel*Frame) : 0.150
Stream size : 26.2 GiB (88%)
Writing library : x265 3.5+12+14-106329cbd:[Windows][GCC 10.3.0][64 bit] 10bit
Encoding settings : cpuid=1111039 / frame-threads=4 / numa-pools=24 / wpp / no-pmode / no-pme / no-psnr / no-ssim / log-level=2 / input-csp=1 / input-res=3840x2064 / interlace=0 / total-frames=189270 / level-idc=0 / high-tier=1 / uhd-bd=0 / ref=4 / no-allow-non-conformance / repeat-headers / annexb / aud / no-eob / no-eos / no-hrd / info / hash=0 / no-temporal-layers / open-gop / min-keyint=24 / keyint=250 / gop-lookahead=0 / bframes=8 / b-adapt=2 / b-pyramid / bframe-bias=0 / rc-lookahead=80 / lookahead-slices=6 / scenecut=40 / no-hist-scenecut / radl=0 / no-splice / no-intra-refresh / ctu=64 / min-cu-size=8 / rect / no-amp / max-tu-size=32 / tu-inter-depth=1 / tu-intra-depth=1 / limit-tu=0 / rdoq-level=2 / dynamic-rd=0.00 / no-ssim-rd / signhide / no-tskip / nr-intra=0 / nr-inter=0 / no-constrained-intra / strong-intra-smoothing / max-merge=3 / limit-refs=3 / limit-modes / me=3 / subme=3 / merange=57 / temporal-mvp / no-frame-dup / no-hme / weightp / no-weightb / no-analyze-src-pics / deblock=0:0 / sao / no-sao-non-deblock / rd=4 / selective-sao=4 / no-early-skip / rskip / no-fast-intra / no-tskip-fast / no-cu-lossless / no-b-intra / no-splitrd-skip / rdpenalty=0 / psy-rd=2.00 / psy-rdoq=1.00 / no-rd-refine / no-lossless / cbqpoffs=0 / crqpoffs=0 / rc=crf / crf=24.0 / qcomp=0.60 / qpstep=4 / stats-write=0 / stats-read=0 / ipratio=1.40 / pbratio=1.30 / aq-mode=3 / aq-strength=1.00 / cutree / zone-count=0 / no-strict-cbr / qg-size=32 / no-rc-grain / qpmax=69 / qpmin=0 / no-const-vbv / sar=0 / overscan=0 / videoformat=5 / range=0 / colorprim=9 / transfer=16 / colormatrix=9 / chromaloc=1 / chromaloc-top=2 / chromaloc-bottom=2 / display-window=0 / master-display=G(13250,34500)B(7500,3000)R(34000,16000)WP(15635,16450)L(10000000,1) / cll=1000,710 / min-luma=0 / max-luma=1023 / log2-max-poc-lsb=8 / vui-timing-info / vui-hrd-info / slices=1 / no-opt-qp-pps / no-opt-ref-list-length-pps / no-multi-pass-opt-rps / scenecut-bias=0.05 / hist-threshold=0.03 / no-opt-cu-delta-qp / no-aq-motion / hdr10 / no-hdr10-opt / no-dhdr10-opt / no-idr-recovery-sei / analysis-reuse-level=0 / analysis-save-reuse-level=0 / analysis-load-reuse-level=0 / scale-factor=0 / refine-intra=0 / refine-inter=0 / refine-mv=1 / refine-ctu-distortion=0 / no-limit-sao / ctu-info=0 / no-lowpass-dct / refine-analysis-type=0 / copy-pic=1 / max-ausize-factor=1.0 / no-dynamic-refine / no-single-sei / no-hevc-aq / no-svt / no-field / qp-adaptation-range=1.00 / scenecut-aware-qp=0 / conformance-window-right-offset=0 / conformance-window-bottom-offset=0 / decoder-max-rate=0 / no-vbv-live-multi-pass
Default : Yes
Forced : No
Color range : Limited
Color primaries : BT.2020
Transfer characteristics : PQ
Matrix coefficients : BT.2020 non-constant
Mastering display color primaries : Display P3
Mastering display luminance : min: 0.0001 cd/m2, max: 1000 cd/m2
Maximum Content Light Level : 1000 cd/m2
Maximum Frame-Average Light Level : 710 cd/m2

Audio #1
ID : 2
Format : DTS XLL
Format/Info : Digital Theater Systems
Commercial name : DTS-HD Master Audio
Codec ID : A_DTS
Duration : 2 h 11 min
Bit rate mode : Variable
Bit rate : 3 652 kb/s
Channel(s) : 6 channels
Channel layout : C L R Ls Rs LFE
Sampling rate : 48.0 kHz
Frame rate : 93.750 FPS (512 SPF)
Bit depth : 24 bits
Compression mode : Lossless
Stream size : 3.35 GiB (11%)
Language : English
Default : Yes
Forced : No

Audio #2
ID : 3
Format : AC-3
Format/Info : Audio Coding 3
Commercial name : Dolby Digital
Codec ID : A_AC3
Duration : 2 h 11 min
Bit rate mode : Constant
Bit rate : 192 kb/s
Channel(s) : 2 channels
Channel layout : L R
Sampling rate : 48.0 kHz
Frame rate : 31.250 FPS (1536 SPF)
Compression mode : Lossy
Stream size : 181 MiB (1%)
Title : Commentary by director Ridley Scott
Language : English
Service kind : Complete Main
Default : No
Forced : No

Text #1
ID : 4
Format : PGS
Muxing mode : zlib
Codec ID : S_HDMV/PGS
Codec ID/Info : Picture based subtitle format used on BDs/HD-DVDs
Duration : 2 h 10 min
Bit rate : 35.1 kb/s
Count of elements : 2774
Stream size : 32.7 MiB (0%)
Language : English
Default : No
Forced : No

Text #2
ID : 5
Format : PGS
Muxing mode : zlib
Codec ID : S_HDMV/PGS
Codec ID/Info : Picture based subtitle format used on BDs/HD-DVDs
Duration : 2 h 10 min
Bit rate : 36.9 kb/s
Count of elements : 2901
Stream size : 34.5 MiB (0%)
Title : SDH
Language : English
Default : No
Forced : No

Text #3
ID : 6
Format : PGS
Muxing mode : zlib
Codec ID : S_HDMV/PGS
Codec ID/Info : Picture based subtitle format used on BDs/HD-DVDs
Duration : 2 h 10 min
Bit rate : 26.1 kb/s
Count of elements : 2490
Stream size : 24.4 MiB (0%)
Title : Mandarin Traditional
Language : Chinese
Default : No
Forced : No

Text #4
ID : 7
Format : PGS
Muxing mode : zlib
Codec ID : S_HDMV/PGS
Codec ID/Info : Picture based subtitle format used on BDs/HD-DVDs
Duration : 2 h 10 min
Bit rate : 32.2 kb/s
Count of elements : 2468
Stream size : 30.1 MiB (0%)
Language : Danish
Default : No
Forced : No

Text #5
ID : 8
Format : PGS
Muxing mode : zlib
Codec ID : S_HDMV/PGS
Codec ID/Info : Picture based subtitle format used on BDs/HD-DVDs
Duration : 2 h 10 min
Bit rate : 33.3 kb/s
Count of elements : 2472
Stream size : 31.1 MiB (0%)
Language : Dutch
Default : No
Forced : No

Text #6
ID : 9
Format : PGS
Muxing mode : zlib
Codec ID : S_HDMV/PGS
Codec ID/Info : Picture based subtitle format used on BDs/HD-DVDs
Duration : 2 h 10 min
Bit rate : 28.8 kb/s
Count of elements : 2468
Stream size : 26.9 MiB (0%)
Language : Finnish
Default : No
Forced : No

Text #7
ID : 10
Format : PGS
Muxing mode : zlib
Codec ID : S_HDMV/PGS
Codec ID/Info : Picture based subtitle format used on BDs/HD-DVDs
Duration : 2 h 10 min
Bit rate : 31.9 kb/s
Count of elements : 2473
Stream size : 29.8 MiB (0%)
Language : French
Default : No
Forced : No

Text #8
ID : 11
Format : PGS
Muxing mode : zlib
Codec ID : S_HDMV/PGS
Codec ID/Info : Picture based subtitle format used on BDs/HD-DVDs
Duration : 2 h 10 min
Bit rate : 36.2 kb/s
Count of elements : 2494
Stream size : 33.8 MiB (0%)
Language : Greek
Default : No
Forced : No

Text #9
ID : 12
Format : PGS
Muxing mode : zlib
Codec ID : S_HDMV/PGS
Codec ID/Info : Picture based subtitle format used on BDs/HD-DVDs
Duration : 2 h 10 min
Bit rate : 22.4 kb/s
Count of elements : 2570
Stream size : 21.0 MiB (0%)
Language : Japanese
Default : No
Forced : No

Text #10
ID : 13
Format : PGS
Muxing mode : zlib
Codec ID : S_HDMV/PGS
Codec ID/Info : Picture based subtitle format used on BDs/HD-DVDs
Duration : 2 h 10 min
Bit rate : 22.3 kb/s
Count of elements : 2496
Stream size : 20.8 MiB (0%)
Language : Korean
Default : No
Forced : No

Text #11
ID : 14
Format : PGS
Muxing mode : zlib
Codec ID : S_HDMV/PGS
Codec ID/Info : Picture based subtitle format used on BDs/HD-DVDs
Duration : 2 h 10 min
Bit rate : 31.5 kb/s
Count of elements : 2464
Stream size : 29.4 MiB (0%)
Language : Norwegian Bokmal
Default : No
Forced : No

Text #12
ID : 15
Format : PGS
Muxing mode : zlib
Codec ID : S_HDMV/PGS
Codec ID/Info : Picture based subtitle format used on BDs/HD-DVDs
Duration : 2 h 10 min
Bit rate : 34.0 kb/s
Count of elements : 2469
Stream size : 31.8 MiB (0%)
Title : Iberian
Language : Portuguese
Default : No
Forced : No

Text #13
ID : 16
Format : PGS
Muxing mode : zlib
Codec ID : S_HDMV/PGS
Codec ID/Info : Picture based subtitle format used on BDs/HD-DVDs
Duration : 2 h 10 min
Bit rate : 32.9 kb/s
Count of elements : 2473
Stream size : 30.8 MiB (0%)
Title : Castilian
Language : Spanish
Default : No
Forced : No

Text #14
ID : 17
Format : PGS
Muxing mode : zlib
Codec ID : S_HDMV/PGS
Codec ID/Info : Picture based subtitle format used on BDs/HD-DVDs
Duration : 2 h 10 min
Bit rate : 32.6 kb/s
Count of elements : 2456
Stream size : 30.4 MiB (0%)
Language : Swedish
Default : No
Forced : No

Text #15
ID : 18
Format : PGS
Muxing mode : zlib
Codec ID : S_HDMV/PGS
Codec ID/Info : Picture based subtitle format used on BDs/HD-DVDs
Duration : 2 h 11 min
Bit rate : 60.0 kb/s
Count of elements : 3668
Stream size : 56.2 MiB (0%)
Title : Commentary by director Ridley Scott
Language : English
Default : No
Forced : No

Text #16
ID : 19
Format : PGS
Muxing mode : zlib
Codec ID : S_HDMV/PGS
Codec ID/Info : Picture based subtitle format used on BDs/HD-DVDs
Duration : 2 h 7 min
Bit rate : 34.3 kb/s
Count of elements : 2504
Stream size : 31.3 MiB (0%)
Title : Commentary by director Ridley Scott
Language : Japanese
Default : No
Forced : No

Text #17
ID : 20
Format : PGS
Muxing mode : zlib
Codec ID : S_HDMV/PGS
Codec ID/Info : Picture based subtitle format used on BDs/HD-DVDs
Duration : 2 h 11 min
Bit rate : 54.1 kb/s
Count of elements : 3670
Stream size : 50.7 MiB (0%)
Title : Commentary by director Ridley Scott
Language : French
Default : No
Forced : No

Text #18
ID : 21
Format : PGS
Muxing mode : zlib
Codec ID : S_HDMV/PGS
Codec ID/Info : Picture based subtitle format used on BDs/HD-DVDs
Duration : 2 h 11 min
Bit rate : 55.2 kb/s
Count of elements : 3670
Stream size : 51.8 MiB (0%)
Title : Commentary by director Ridley Scott (Castilian)
Language : Spanish
Default : No
Forced : No

Menu
00:00:00.000 : Fish Market Shoot-Out
00:15:51.417 : Nobody Beats the Riz
00:28:55.292 : Dr. Fell in Florence
00:39:47.500 : Back on the Case
00:54:37.417 : Pickpocket
01:10:10.375 : Pazzi's Fate
01:21:35.875 : Deep Roller
01:42:18.708 : Hors d'Oeuvre Tartare
01:51:14.875 : The Main Course
02:01:31.833 : Try New Things

Source:

Remux 66 GB

Coming Soon:

Flight
For a Few Dollars More
Felon
The Nun 4k
The Descendants
The Day the Earth Stood Still
The Magnificent Seven 4k
The Darjeeling Limited
The Curious Case of Benjamin Button
A Bug's Life 4k
Forgetting Sarah Marshall
Friday
Friday Night Lights
Fruitvale Station
The Lord of the Rings: The Fellowship of the Ring 4k
The Count of Monte Cristo
The Conjuring
The Butler
The Big Short
The Lord of the Rings: The Two Towers 4k
The Lord of the Rings: The Return of the King 4k
The Outsiders 4k
Mobile Suit Gundam: Iron-Blooded Orphans S02
Berserk: The Golden Age Arc II – The Battle for Doldrey
Ballers S04

Related Torrents

Trackers

Tracker name
udp://tracker.opentrackr.org:1337/announce
udp://tracker.coppersurfer.tk:6969/announce
udp://tracker.torrent.eu.org:451/announce
udp://open.stealth.si:80/announce
udp://tracker.zer0day.to:1337/announce
udp://tracker.leechers-paradise.org:6969/announce
udp://coppersurfer.tk:6969/announce
Torrent hash: F7C976D2D68ADF4621DB03F94CCA09807E6F7C22

0 Comment

Login to post comments