Flight (2012) (1080p x265 HEVC 10bit BluRay AC3 5 1) [Prof]


0

0
seeders: 6 leechers: 6 updated: 3 days ago
Added 3 days ago in Movies
Downloaded 3 times.
Flight (2012) (1080p x265 HEVC 10bit BluRay AC3 5 1) [Prof]
  • Release date: 2 Nov 2012
  • Release year: 2012
  • Runtime: 138 mintues
  • Country: United States, United Arab Emirates
  • Keywords: alcoholism, flight, airline, pilot, lawyer
  • Budget: $31,000,000
Plot:
Whip Whitaker is a commuter airline pilot. While on a flight from Orlando to Atlanta something goes wrong and the plane starts to fly erratically. With little choice Whip crashes the plane and saves almost all on board. When he wakes up in the hospital, his friend from the airline union introduces him to a lawyer who tells him there's a chance he could face criminal charges because his blood test reveals that he was intoxicated with alcohol and cocaine. He denies being impaired, so while an investigation is underway, he is told to keep his act together. However, letting go of his addiction is not as easy as it seems...

Available in versions:
Other BDRip x264 x265 480p 720p 1080p

Files

Flight (2012).mkv (3.8 GB)
Flight (2012).mkv 3.8 GB

Description





General

Format : Matroska
Format version : Version 4
File size : 3.82 GiB
Duration : 2 h 18 min
Overall bit rate : 3 944 kb/s
Encoded date : UTC 2021-11-25 15:57:35
Writing application : mkvmerge v59.0.0 ('Shining Star') 64-bit
Writing library : libebml v1.4.2 + libmatroska v1.6.4

Video
ID : 1
Format : HEVC
Format/Info : High Efficiency Video Coding
Format profile : Main [email protected]@Main
Codec ID : V_MPEGH/ISO/HEVC
Duration : 2 h 18 min
Bit rate : 2 986 kb/s
Width : 1 920 pixels
Height : 800 pixels
Display aspect ratio : 2.40:1
Frame rate mode : Constant
Frame rate : 23.976 (24000/1001) FPS
Color space : YUV
Chroma subsampling : 4:2:0
Bit depth : 10 bits
Bits/(Pixel*Frame) : 0.081
Stream size : 2.89 GiB (76%)
Writing library : x265 3.5+12+14-106329cbd:[Windows][GCC 10.3.0][64 bit] 10bit
Encoding settings : cpuid=1111039 / frame-threads=4 / numa-pools=24 / wpp / no-pmode / no-pme / no-psnr / no-ssim / log-level=2 / input-csp=1 / input-res=1920x800 / interlace=0 / total-frames=199369 / level-idc=0 / high-tier=1 / uhd-bd=0 / ref=4 / no-allow-non-conformance / no-repeat-headers / annexb / no-aud / no-eob / no-eos / no-hrd / info / hash=0 / no-temporal-layers / open-gop / min-keyint=23 / keyint=250 / gop-lookahead=0 / bframes=8 / b-adapt=2 / b-pyramid / bframe-bias=0 / rc-lookahead=80 / lookahead-slices=5 / scenecut=40 / no-hist-scenecut / radl=0 / no-splice / no-intra-refresh / ctu=64 / min-cu-size=8 / rect / no-amp / max-tu-size=32 / tu-inter-depth=1 / tu-intra-depth=1 / limit-tu=0 / rdoq-level=2 / dynamic-rd=0.00 / no-ssim-rd / signhide / no-tskip / nr-intra=0 / nr-inter=0 / no-constrained-intra / strong-intra-smoothing / max-merge=3 / limit-refs=3 / limit-modes / me=3 / subme=3 / merange=57 / temporal-mvp / no-frame-dup / no-hme / weightp / no-weightb / no-analyze-src-pics / deblock=0:0 / sao / no-sao-non-deblock / rd=4 / selective-sao=4 / no-early-skip / rskip / no-fast-intra / no-tskip-fast / no-cu-lossless / no-b-intra / no-splitrd-skip / rdpenalty=0 / psy-rd=2.00 / psy-rdoq=1.00 / no-rd-refine / no-lossless / cbqpoffs=0 / crqpoffs=0 / rc=crf / crf=18.0 / qcomp=0.60 / qpstep=4 / stats-write=0 / stats-read=0 / ipratio=1.40 / pbratio=1.30 / aq-mode=3 / aq-strength=1.00 / cutree / zone-count=0 / no-strict-cbr / qg-size=32 / no-rc-grain / qpmax=69 / qpmin=0 / no-const-vbv / sar=0 / overscan=0 / videoformat=5 / range=0 / colorprim=2 / transfer=2 / colormatrix=2 / chromaloc=0 / display-window=0 / cll=0,0 / min-luma=0 / max-luma=1023 / log2-max-poc-lsb=8 / vui-timing-info / vui-hrd-info / slices=1 / no-opt-qp-pps / no-opt-ref-list-length-pps / no-multi-pass-opt-rps / scenecut-bias=0.05 / hist-threshold=0.03 / no-opt-cu-delta-qp / no-aq-motion / no-hdr10 / no-hdr10-opt / no-dhdr10-opt / no-idr-recovery-sei / analysis-reuse-level=0 / analysis-save-reuse-level=0 / analysis-load-reuse-level=0 / scale-factor=0 / refine-intra=0 / refine-inter=0 / refine-mv=1 / refine-ctu-distortion=0 / no-limit-sao / ctu-info=0 / no-lowpass-dct / refine-analysis-type=0 / copy-pic=1 / max-ausize-factor=1.0 / no-dynamic-refine / no-single-sei / no-hevc-aq / no-svt / no-field / qp-adaptation-range=1.00 / scenecut-aware-qp=0 / conformance-window-right-offset=0 / conformance-window-bottom-offset=0 / decoder-max-rate=0 / no-vbv-live-multi-pass
Default : Yes
Forced : No

Audio
ID : 2
Format : AC-3
Format/Info : Audio Coding 3
Commercial name : Dolby Digital
Codec ID : A_AC3
Duration : 2 h 18 min
Bit rate mode : Constant
Bit rate : 640 kb/s
Channel(s) : 6 channels
Channel layout : L R C LFE Ls Rs
Sampling rate : 48.0 kHz
Frame rate : 31.250 FPS (1536 SPF)
Compression mode : Lossy
Stream size : 634 MiB (16%)
Language : English
Service kind : Complete Main
Default : Yes
Forced : No

Text #1
ID : 3
Format : PGS
Muxing mode : zlib
Codec ID : S_HDMV/PGS
Codec ID/Info : Picture based subtitle format used on BDs/HD-DVDs
Duration : 2 h 10 min
Bit rate : 44.9 kb/s
Count of elements : 4164
Stream size : 42.0 MiB (1%)
Language : English
Default : No
Forced : No

Text #2
ID : 4
Format : PGS
Muxing mode : zlib
Codec ID : S_HDMV/PGS
Codec ID/Info : Picture based subtitle format used on BDs/HD-DVDs
Duration : 2 h 17 min
Bit rate : 20.4 kb/s
Count of elements : 3312
Stream size : 20.1 MiB (1%)
Language : Arabic
Default : No
Forced : No

Text #3
ID : 5
Format : PGS
Muxing mode : zlib
Codec ID : S_HDMV/PGS
Codec ID/Info : Picture based subtitle format used on BDs/HD-DVDs
Duration : 2 h 18 min
Bit rate : 35.2 kb/s
Count of elements : 3300
Stream size : 34.7 MiB (1%)
Language : Bulgarian
Default : No
Forced : No

Text #4
ID : 6
Format : PGS
Muxing mode : zlib
Codec ID : S_HDMV/PGS
Codec ID/Info : Picture based subtitle format used on BDs/HD-DVDs
Duration : 2 h 18 min
Bit rate : 26.9 kb/s
Count of elements : 3308
Stream size : 26.5 MiB (1%)
Language : Chinese
Default : No
Forced : No

Text #5
ID : 7
Format : PGS
Muxing mode : zlib
Codec ID : S_HDMV/PGS
Codec ID/Info : Picture based subtitle format used on BDs/HD-DVDs
Duration : 2 h 18 min
Bit rate : 29.0 kb/s
Count of elements : 3724
Stream size : 28.6 MiB (1%)
Language : Chinese
Default : No
Forced : No

Text #6
ID : 8
Format : PGS
Muxing mode : zlib
Codec ID : S_HDMV/PGS
Codec ID/Info : Picture based subtitle format used on BDs/HD-DVDs
Duration : 2 h 17 min
Bit rate : 37.6 kb/s
Count of elements : 4180
Stream size : 37.0 MiB (1%)
Language : Chinese
Default : No
Forced : No

Text #7
ID : 9
Format : PGS
Muxing mode : zlib
Codec ID : S_HDMV/PGS
Codec ID/Info : Picture based subtitle format used on BDs/HD-DVDs
Duration : 2 h 18 min
Bit rate : 35.4 kb/s
Count of elements : 3300
Stream size : 34.9 MiB (1%)
Language : Croatian
Default : No
Forced : No

Text #8
ID : 10
Format : PGS
Muxing mode : zlib
Codec ID : S_HDMV/PGS
Codec ID/Info : Picture based subtitle format used on BDs/HD-DVDs
Duration : 2 h 18 min
Bit rate : 35.7 kb/s
Count of elements : 3302
Stream size : 35.3 MiB (1%)
Language : Czech
Default : No
Forced : No

Text #9
ID : 11
Format : PGS
Muxing mode : zlib
Codec ID : S_HDMV/PGS
Codec ID/Info : Picture based subtitle format used on BDs/HD-DVDs
Duration : 2 h 18 min
Bit rate : 40.6 kb/s
Count of elements : 4174
Stream size : 40.2 MiB (1%)
Language : Estonian
Default : No
Forced : No

Text #10
ID : 12
Format : PGS
Muxing mode : zlib
Codec ID : S_HDMV/PGS
Codec ID/Info : Picture based subtitle format used on BDs/HD-DVDs
Duration : 2 h 18 min
Bit rate : 37.3 kb/s
Count of elements : 3288
Stream size : 36.9 MiB (1%)
Language : Greek
Default : No
Forced : No

Text #11
ID : 13
Format : PGS
Muxing mode : zlib
Codec ID : S_HDMV/PGS
Codec ID/Info : Picture based subtitle format used on BDs/HD-DVDs
Duration : 2 h 18 min
Bit rate : 26.7 kb/s
Count of elements : 3310
Stream size : 26.4 MiB (1%)
Language : Hebrew
Default : No
Forced : No

Text #12
ID : 14
Format : PGS
Muxing mode : zlib
Codec ID : S_HDMV/PGS
Codec ID/Info : Picture based subtitle format used on BDs/HD-DVDs
Duration : 2 h 17 min
Bit rate : 30.0 kb/s
Count of elements : 4180
Stream size : 29.5 MiB (1%)
Language : Hindi
Default : No
Forced : No

Text #13
ID : 15
Format : PGS
Muxing mode : zlib
Codec ID : S_HDMV/PGS
Codec ID/Info : Picture based subtitle format used on BDs/HD-DVDs
Duration : 2 h 18 min
Bit rate : 33.6 kb/s
Count of elements : 3188
Stream size : 33.2 MiB (1%)
Language : Hungarian
Default : No
Forced : No

Text #14
ID : 16
Format : PGS
Muxing mode : zlib
Codec ID : S_HDMV/PGS
Codec ID/Info : Picture based subtitle format used on BDs/HD-DVDs
Duration : 2 h 17 min
Bit rate : 33.1 kb/s
Count of elements : 3260
Stream size : 32.6 MiB (1%)
Language : Icelandic
Default : No
Forced : No

Text #15
ID : 17
Format : PGS
Muxing mode : zlib
Codec ID : S_HDMV/PGS
Codec ID/Info : Picture based subtitle format used on BDs/HD-DVDs
Duration : 2 h 17 min
Bit rate : 39.8 kb/s
Count of elements : 3262
Stream size : 39.1 MiB (1%)
Language : Indonesian
Default : No
Forced : No

Text #16
ID : 18
Format : PGS
Muxing mode : zlib
Codec ID : S_HDMV/PGS
Codec ID/Info : Picture based subtitle format used on BDs/HD-DVDs
Duration : 2 h 18 min
Bit rate : 22.7 kb/s
Count of elements : 3310
Stream size : 22.5 MiB (1%)
Language : Korean
Default : No
Forced : No

Text #17
ID : 19
Format : PGS
Muxing mode : zlib
Codec ID : S_HDMV/PGS
Codec ID/Info : Picture based subtitle format used on BDs/HD-DVDs
Duration : 2 h 18 min
Bit rate : 36.0 kb/s
Count of elements : 4180
Stream size : 35.6 MiB (1%)
Language : Latvian
Default : No
Forced : No

Text #18
ID : 20
Format : PGS
Muxing mode : zlib
Codec ID : S_HDMV/PGS
Codec ID/Info : Picture based subtitle format used on BDs/HD-DVDs
Duration : 2 h 18 min
Bit rate : 34.8 kb/s
Count of elements : 3270
Stream size : 34.3 MiB (1%)
Language : Lithuanian
Default : No
Forced : No

Text #19
ID : 21
Format : PGS
Muxing mode : zlib
Codec ID : S_HDMV/PGS
Codec ID/Info : Picture based subtitle format used on BDs/HD-DVDs
Duration : 2 h 17 min
Bit rate : 50.9 kb/s
Count of elements : 4172
Stream size : 50.1 MiB (1%)
Language : Malay
Default : No
Forced : No

Text #20
ID : 22
Format : PGS
Muxing mode : zlib
Codec ID : S_HDMV/PGS
Codec ID/Info : Picture based subtitle format used on BDs/HD-DVDs
Duration : 2 h 18 min
Bit rate : 38.5 kb/s
Count of elements : 4174
Stream size : 38.0 MiB (1%)
Language : Polish
Default : No
Forced : No

Text #21
ID : 23
Format : PGS
Muxing mode : zlib
Codec ID : S_HDMV/PGS
Codec ID/Info : Picture based subtitle format used on BDs/HD-DVDs
Duration : 2 h 18 min
Bit rate : 36.9 kb/s
Count of elements : 3328
Stream size : 36.4 MiB (1%)
Language : Portuguese
Default : No
Forced : No

Text #22
ID : 24
Format : PGS
Muxing mode : zlib
Codec ID : S_HDMV/PGS
Codec ID/Info : Picture based subtitle format used on BDs/HD-DVDs
Duration : 2 h 18 min
Bit rate : 38.5 kb/s
Count of elements : 4174
Stream size : 38.0 MiB (1%)
Language : Romanian
Default : No
Forced : No

Text #23
ID : 25
Format : PGS
Muxing mode : zlib
Codec ID : S_HDMV/PGS
Codec ID/Info : Picture based subtitle format used on BDs/HD-DVDs
Duration : 2 h 18 min
Bit rate : 33.7 kb/s
Count of elements : 3364
Stream size : 33.3 MiB (1%)
Language : Russian
Default : No
Forced : No

Text #24
ID : 26
Format : PGS
Muxing mode : zlib
Codec ID : S_HDMV/PGS
Codec ID/Info : Picture based subtitle format used on BDs/HD-DVDs
Duration : 2 h 18 min
Bit rate : 33.8 kb/s
Count of elements : 3308
Stream size : 33.4 MiB (1%)
Language : Serbian
Default : No
Forced : No

Text #25
ID : 27
Format : PGS
Muxing mode : zlib
Codec ID : S_HDMV/PGS
Codec ID/Info : Picture based subtitle format used on BDs/HD-DVDs
Duration : 2 h 17 min
Bit rate : 41.0 kb/s
Count of elements : 4172
Stream size : 40.3 MiB (1%)
Language : Slovak
Default : No
Forced : No

Text #26
ID : 28
Format : PGS
Muxing mode : zlib
Codec ID : S_HDMV/PGS
Codec ID/Info : Picture based subtitle format used on BDs/HD-DVDs
Duration : 2 h 18 min
Bit rate : 27.1 kb/s
Count of elements : 2278
Stream size : 26.8 MiB (1%)
Language : Slovenian
Default : No
Forced : No

Text #27
ID : 29
Format : PGS
Muxing mode : zlib
Codec ID : S_HDMV/PGS
Codec ID/Info : Picture based subtitle format used on BDs/HD-DVDs
Duration : 2 h 18 min
Bit rate : 29.1 kb/s
Count of elements : 3270
Stream size : 28.8 MiB (1%)
Language : Thai
Default : No
Forced : No

Text #28
ID : 30
Format : PGS
Muxing mode : zlib
Codec ID : S_HDMV/PGS
Codec ID/Info : Picture based subtitle format used on BDs/HD-DVDs
Duration : 2 h 18 min
Bit rate : 36.7 kb/s
Count of elements : 3304
Stream size : 36.3 MiB (1%)
Language : Turkish
Default : No
Forced : No

Text #29
ID : 31
Format : PGS
Muxing mode : zlib
Codec ID : S_HDMV/PGS
Codec ID/Info : Picture based subtitle format used on BDs/HD-DVDs
Duration : 2 h 18 min
Bit rate : 41.3 kb/s
Count of elements : 4182
Stream size : 40.8 MiB (1%)
Language : Ukrainian
Default : No
Forced : No

Menu
00:00:00.000 : Chapter 1
00:09:32.572 : Chapter 2
00:17:06.984 : Chapter 3
00:26:16.784 : Chapter 4
00:34:40.203 : Chapter 5
00:45:42.615 : Chapter 6
00:52:01.493 : Chapter 7
01:00:46.768 : Chapter 8
01:10:10.081 : Chapter 9
01:19:30.808 : Chapter 10
01:26:54.543 : Chapter 11
01:37:05.236 : Chapter 12
01:48:54.153 : Chapter 13
01:55:20.122 : Chapter 14
02:11:54.740 : Chapter 15

Source:

Remux 28.6 GB

Coming Soon:

For a Few Dollars More
Felon
The Nun 4k
The Descendants
The Day the Earth Stood Still
The Magnificent Seven 4k
The Darjeeling Limited
The Curious Case of Benjamin Button
A Bug's Life 4k
Forgetting Sarah Marshall
Friday
Friday Night Lights
Fruitvale Station
The Lord of the Rings: The Fellowship of the Ring 4k
The Count of Monte Cristo
The Conjuring
The Butler
The Big Short
The Lord of the Rings: The Two Towers 4k
The Lord of the Rings: The Return of the King 4k
The Outsiders 4k
Mobile Suit Gundam: Iron-Blooded Orphans S02
Berserk: The Golden Age Arc II – The Battle for Doldrey
Ballers S04

Related Torrents

Trackers

Tracker name
udp://tracker.opentrackr.org:1337/announce
udp://tracker.coppersurfer.tk:6969/announce
udp://tracker.torrent.eu.org:451/announce
udp://open.stealth.si:80/announce
udp://tracker.zer0day.to:1337/announce
udp://tracker.leechers-paradise.org:6969/announce
udp://coppersurfer.tk:6969/announce
Torrent hash: 7E08F7B6E4E803F44BA301CDB2E60690E52CB331

0 Comment

Login to post comments