Fantastic Beasts The Secrets of Dumbledore 2022 1080p KORSUB HDRip x264 AAC2 0-SHITBOX


1

0
seeders: 4459 leechers: 1933 updated: 2 days ago
Added 1 week ago in Movies - Highres Movies
Downloaded 717 times.
Fantastic Beasts The Secrets of Dumbledore 2022 1080p KORSUB HDRip x264 AAC2 0-SHITBOX
  • Release date: 15 Apr 2022
  • Release year: 2022
  • Runtime: 142 mintues
  • Country: United Kingdom, United States
  • Keywords: 1930s, third part, sequel, wizard, shared universe
Plot:
Professor Albus Dumbledore knows the powerful Dark wizard Gellert Grindelwald is moving to seize control of the wizarding world. Unable to stop him alone, he entrusts Magizoologist Newt Scamander to lead an intrepid team of wizards, witches and one brave Muggle baker on a dangerous mission, where they encounter old and new beasts and clash with Grindelwald's growing legion of followers. But with the stakes so high, how long can Dumbledore remain on the sidelines? (Warner Bros media release)

Available in versions:
Other x264 720p 1080p 4k

Files

Fantastic Beasts The Secrets of Dumbledore 2022 1080p KORSUB HDRip x264 AAC2 0-SHITBOX (Size: 5.6 GB)
Fantastic.Beasts.The.Secrets.of.Dumbledore.2022.1080p.KORSUB.HDRip.x264.AAC2.0-SHITBOX.mp4 5.6 GB
RARBG.txt 0 B

Description

Screens... (click to enlarge):









Infolink -> https://www.imdb.com/title/tt4123432/

Mediainfo


Quote:

Video
ID : 1
Format : AVC
Format/Info : Advanced Video Codec
Format profile : [email protected]
Format settings : CABAC / 4 Ref Frames
Format settings, CABAC : Yes
Format settings, Reference frames : 4 frames
Format settings, GOP : M=4, N=96
Codec ID : avc1
Codec ID/Info : Advanced Video Coding
Duration : 2 h 22 min
Bit rate : 5 302 kb/s
Maximum bit rate : 12.8 Mb/s
Width : 1 920 pixels
Height : 1 080 pixels
Display aspect ratio : 16:9
Frame rate mode : Constant
Frame rate : 23.976 (23976/1000) FPS
Color space : YUV
Chroma subsampling : 4:2:0
Bit depth : 8 bits
Scan type : Progressive
Bits/(Pixel*Frame) : 0.107
Stream size : 5.28 GiB (94%)
Title : English
Encoded date : UTC 2022-05-10 20:00:26
Tagged date : UTC 2022-05-10 20:01:30
mdhd_Duration : 8552636
Codec configuration box : avcC

Audio
ID : 2
Format : AAC LC
Format/Info : Advanced Audio Codec Low Complexity
Codec ID : mp4a-40-2
Duration : 2 h 22 min
Bit rate mode : Variable
Bit rate : 320 kb/s
Maximum bit rate : 328 kb/s
Channel(s) : 2 channels
Channel layout : L R
Sampling rate : 48.0 kHz
Frame rate : 46.875 FPS (1024 SPF)
Compression mode : Lossy
Stream size : 326 MiB (6%)
Title : English
Encoded date : UTC 2022-05-10 20:01:26
Tagged date : UTC 2022-05-10 20:01:30

Related Torrents

Trackers

Tracker name
http://tracker.trackerfix.com:80/announce
udp://9.rarbg.me:2910/announce
udp://9.rarbg.to:2800/announce
udp://tracker.thinelephant.org:12800/announce
udp://tracker.fatkhoala.org:13720/announce
udp://tracker.opentrackr.org:1337/announce
http://tracker.openbittorrent.com:80/announce
udp://opentracker.i2p.rocks:6969/announce
udp://tracker.internetwarriors.net:1337/announce
udp://tracker.leechers-paradise.org:6969/announce
udp://coppersurfer.tk:6969/announce
udp://tracker.zer0day.to:1337/announce
Torrent hash: 65042F531B707FE09F9421583756FA65BFE464F2

0 Comment

Login to post comments

User Opinions

Dilansha 101