Extraction (2020) 720p 10bit NF WEBRip x265 HEVC [Hindi AAC 5 1 + English AAC 5 1] ESub ~ Immortal


0

0
seeders: 4 leechers: 24 updated: 1 week ago
Added 1 week ago in Movies - Dubbed Movies
Downloaded 0 time.
Extraction (2020) 720p 10bit NF WEBRip x265 HEVC [Hindi AAC 5 1 + English AAC 5 1] ESub ~ Immortal
  • Release date: 24 Apr 2020
  • Release year: 2020
  • Runtime: 116 mintues
  • Country: United States, Canada, Thailand
Plot:
In an underworld of weapons dealers and traffickers, a young boy becomes the pawn in a war between notorious drug lords. Trapped by kidnappers inside one of the world's most impenetrable cities, his rescue beckons the unparalleled skill of a mercenary named Tyler Rake, but Rake is a broken man with nothing to lose, harboring a death wish that makes an already deadly mission near impossible.

Available in versions:
Other WEB-DL WEBRip x264 x265 720p 1080p 4k

Files

Extraction (2020) 720p 10bit NF WEBRip x265 HEVC [Hindi AAC 5.1 + English AAC 5.1] ESub ~ Immortal.mkv (1.1 GB)
Extraction (2020) 720p 10bit NF WEBRip x265 HEVC [Hindi AAC 5.1 + English AAC 5.1] ESub ~ Immortal.mkv 1.1 GB

Description

Extraction (2020) 720p 10bit NF WEBRip x265 HEVC [Hindi AAC 5.1 + English AAC 5.1] ESub ~ Immortal



Video
ID : 1
Format : HEVC
Format/Info : High Efficiency Video Coding
Format profile : Main [email protected]@Main
Codec ID : V_MPEGH/ISO/HEVC
Duration : 1 h 57 min
Bit rate : 944 kb/s
Width : 1 280 pixels
Height : 538 pixels
Display aspect ratio : 2.40:1
Frame rate mode : Constant
Frame rate : 24.000 FPS
Color space : YUV
Chroma subsampling : 4:2:0
Bit depth : 10 bits
Bits/(Pixel*Frame) : 0.057
Stream size : 793 MiB (71%)
Title : Encoded By ~ Immortal
Language : English
Default : Yes
Forced : No
Color range : Limited
Color primaries : BT.709
Transfer characteristics : BT.709
Matrix coefficients : BT.709

Audio #1
ID : 2
Format : AAC LC
Format/Info : Advanced Audio Codec Low Complexity
Codec ID : A_AAC-2
Duration : 1 h 57 min
Bit rate : 192 kb/s
Channel(s) : 6 channels
Channel layout : C L R Ls Rs LFE
Sampling rate : 48.0 kHz
Frame rate : 46.875 FPS (1024 SPF)
Compression mode : Lossy
Delay relative to video : -21 ms
Stream size : 160 MiB (14%)
Title : Hindi AAC 5.1 ~ Immortal
Language : Hindi
Default : Yes
Forced : Yes

Audio #2
ID : 3
Format : AAC LC
Format/Info : Advanced Audio Codec Low Complexity
Codec ID : A_AAC-2
Duration : 1 h 57 min
Bit rate : 192 kb/s
Channel(s) : 6 channels
Channel layout : C L R Ls Rs LFE
Sampling rate : 48.0 kHz
Frame rate : 46.875 FPS (1024 SPF)
Compression mode : Lossy
Delay relative to video : -21 ms
Stream size : 160 MiB (14%)
Title : English AAC 5.1 ~ Immortal
Language : English
Default : No
Forced : No

Text
ID : 4
Format : ASS
Codec ID : S_TEXT/ASS
Codec ID/Info : Advanced Sub Station Alpha
Duration : 1 h 39 min
Bit rate : 60 b/s
Count of elements : 925
Compression mode : Lossless
Stream size : 44.2 KiB (0%)
Title : English Sub
Language : English
Default : Yes
Forced : Yes













Quote:

???? Encoding Source :— Extraction.2020.1080p.NF.WEB-DL.DD+5.1.Atmos.x264-Telly (13.5GB) ????

Related Torrents

Trackers

Tracker name
udp://tracker.opentrackr.org:1337/announce
udp://9.rarbg.com:2810/announce
udp://tracker.openbittorrent.com:6969/announce
udp://exodus.desync.com:6969/announce
http://tracker.openbittorrent.com:80/announce
http://openbittorrent.com:80/announce
udp://www.torrent.eu.org:451/announce
udp://vibe.community:6969/announce
udp://u.wwwww.wtf:1/announce
udp://tracker1.bt.moack.co.kr:80/announce
udp://tracker0.ufibox.com:6969/announce
udp://tracker.zerobytes.xyz:1337/announce
udp://tracker.torrent.eu.org:451/announce
udp://tracker.moeking.me:6969/announce
udp://tracker.zer0day.to:1337/announce
udp://tracker.leechers-paradise.org:6969/announce
udp://coppersurfer.tk:6969/announce
Torrent hash: 0E442342184B5A8667415ED9726561AC7B7E12E6

0 Comment

Login to post comments