Eternals 2021 iTA-ENG WEBDL 2160p HDR x265-CYBER mkv


0

0
seeders: 2 leechers: 12 updated: 1 week ago
Added 1 week ago in Movies
Downloaded 12 times.
Eternals 2021 iTA-ENG WEBDL 2160p HDR x265-CYBER mkv
  • Release date: 5 Nov 2021
  • Release year: 2021
  • Runtime: 156 mintues
  • Country: United States
  • Keywords: superhero, marvel comics, marvel cinematic universe, based on comic, based on comic book
Plot:
Following the events of Avengers: Endgame (2019), an unexpected tragedy forces the Eternals, ancient aliens who have been living on Earth in secret for thousands of years, out of the shadows to reunite against mankind's most ancient enemy, the Deviants.

Available in versions:
Other x264 x265 480p 720p 1080p 4k

Files

Eternals.2021.iTA-ENG.WEBDL.2160p.HDR.x265-CYBER.mkv (29.4 GB)
Eternals.2021.iTA-ENG.WEBDL.2160p.HDR.x265-CYBER.mkv 29.4 GB

Description

DATI - TRAMA

USA, 2021
Genere: Fantasy
durata 156'
Regia di Chloé Zhao
Con Richard Madden, Angelina Jolie, Gemma Chan, Salma Hayek, Kumail Nanjiani, Lia McHugh, Barry Keoghan, Brian Tyree Henry, Dong-seok Madden.

Gli Eterni sono un gruppo di eroi sovrumani che ha protetto la Terra fin dall'alba dell’umanità. Quando mostruose creature chiamate Devianti, ritenute scomparse da tempo, ritornano misteriosamente, gli Eterni devono riunirsi per difendere l'umanità ancora una volta.

IMMAGINI





REPORT

General
Unique ID : 285386088554309079364311095475837301070 (0xD6B35C827891FC0829D1A43CFB13714E)
Complete name : E:\Eternals.2021.iTA-ENG.WEBDL.2160p.HDR.x265-CYBER.mkv
Format : Matroska
Format version : Version 2
File size : 29.4 GiB
Duration : 2 h 36 min
Overall bit rate : 26.9 Mb/s
Movie name : "ENJOY"
Encoded date : UTC 2022-01-12 00:29:53
Writing application : mkvmerge v45.0.0 ('Heaven in Pennies') 64-bit
Writing library : libebml v1.3.10 + libmatroska v1.5.2

Video
ID : 1
Format : HEVC
Format/Info : High Efficiency Video Coding
Format profile : Main [email protected]@High
HDR format : SMPTE ST 2086, HDR10 compatible
Codec ID : V_MPEGH/ISO/HEVC
Duration : 2 h 35 min
Bit rate : 24.3 Mb/s
Width : 3 840 pixels
Height : 1 608 pixels
Display aspect ratio : 2.40:1
Frame rate mode : Constant
Frame rate : 23.976 (24000/1001) FPS
Color space : YUV
Chroma subsampling : 4:2:0 (Type 2)
Bit depth : 10 bits
Bits/(Pixel*Frame) : 0.164
Stream size : 26.5 GiB (90%)
Language : English
Default : Yes
Forced : No
Color range : Limited
Color primaries : BT.2020
Transfer characteristics : PQ
Matrix coefficients : BT.2020 non-constant
Mastering display color primaries : BT.2020
Mastering display luminance : min: 0.0050 cd/m2, max: 1000 cd/m2
Maximum Content Light Level : 397 cd/m2
Maximum Frame-Average Light Level : 139 cd/m2

Audio #1
ID : 2
Format : E-AC-3
Format/Info : Enhanced AC-3
Commercial name : Dolby Digital Plus
Codec ID : A_EAC3
Duration : 2 h 36 min
Bit rate mode : Constant
Bit rate : 640 kb/s
Channel(s) : 6 channels
Channel layout : L R C LFE Ls Rs
Sampling rate : 48.0 kHz
Frame rate : 31.250 FPS (1536 SPF)
Compression mode : Lossy
Stream size : 715 MiB (2%)
Language : Italian
Service kind : Complete Main
Default : Yes
Forced : No

Audio #2
ID : 3
Format : AC-3
Format/Info : Audio Coding 3
Commercial name : Dolby Digital
Codec ID : A_AC3
Duration : 2 h 36 min
Bit rate mode : Constant
Bit rate : 640 kb/s
Channel(s) : 6 channels
Channel layout : L R C LFE Ls Rs
Sampling rate : 48.0 kHz
Frame rate : 31.250 FPS (1536 SPF)
Compression mode : Lossy
Stream size : 715 MiB (2%)
Language : Italian
Service kind : Complete Main
Default : No
Forced : No

Audio #3
ID : 4
Format : E-AC-3 JOC
Format/Info : Enhanced AC-3 with Joint Object Coding
Commercial name : Dolby Digital Plus with Dolby Atmos
Codec ID : A_EAC3
Duration : 2 h 35 min
Bit rate mode : Constant
Bit rate : 768 kb/s
Channel(s) : 6 channels
Channel layout : L R C LFE Ls Rs
Sampling rate : 48.0 kHz
Frame rate : 31.250 FPS (1536 SPF)
Compression mode : Lossy
Stream size : 856 MiB (3%)
Title : English
Language : English
Service kind : Complete Main
Default : No
Forced : No
Complexity index : 16
Number of dynamic objects : 15
Bed channel count : 1 channel
Bed channel configuration : LFE

Audio #4
ID : 5
Format : AC-3
Format/Info : Audio Coding 3
Commercial name : Dolby Digital
Codec ID : A_AC3
Duration : 2 h 35 min
Bit rate mode : Constant
Bit rate : 640 kb/s
Channel(s) : 6 channels
Channel layout : L R C LFE Ls Rs
Sampling rate : 48.0 kHz
Frame rate : 31.250 FPS (1536 SPF)
Compression mode : Lossy
Stream size : 713 MiB (2%)
Language : English
Service kind : Complete Main
Default : No
Forced : No

Text #1
ID : 6
Format : UTF-8
Codec ID : S_TEXT/UTF8
Codec ID/Info : UTF-8 Plain Text
Duration : 2 h 35 min
Bit rate : 2 b/s
Count of elements : 80
Stream size : 2.80 KiB (0%)
Title : FORCED
Language : Italian
Default : Yes
Forced : No

Text #2
ID : 7
Format : UTF-8
Codec ID : S_TEXT/UTF8
Codec ID/Info : UTF-8 Plain Text
Duration : 2 h 33 min
Bit rate : 39 b/s
Count of elements : 1533
Stream size : 44.7 KiB (0%)
Title : REGOLARI
Language : Italian
Default : No
Forced : No

Text #3
ID : 8
Format : UTF-8
Codec ID : S_TEXT/UTF8
Codec ID/Info : UTF-8 Plain Text
Duration : 2 h 33 min
Bit rate : 39 b/s
Count of elements : 1541
Stream size : 44.1 KiB (0%)
Title : NON UDENTI
Language : English
Default : No
Forced : No

GOOD DOWNLOAD

Related Torrents

Trackers

Tracker name
udp://tracker.opentrackr.org:1337/announce
udp://tracker.torrent.eu.org:451/announce
http://tracker.gbitt.info:80/announce
http://tracker2.dler.org:80/announce
http://tracker.bt4g.com:2095/announce
udp://tracker.coppersurfer.tk:6969/announce
udp://tracker.leechers-paradise.org:6969/announce
udp://9.rarbg.me:2790/announce
udp://9.rarbg.to:2730/announce
udp://9.rarbg.com:2710/announce
http://t.nyaatracker.com:80/announce
udp://tracker.zer0day.to:1337/announce
udp://tracker.leechers-paradise.org:6969/announce
udp://coppersurfer.tk:6969/announce
Torrent hash: 6C47B43DC346E89AC532C8FCB1271244BB0654EA

0 Comment

Login to post comments