Eternals 2021 IMAX HDR 2160p WEB h265-KOGi


0

0
seeders: 0 leechers: 0 updated: 1 week ago
Added 1 week ago in Movies
Downloaded 17 times.
Eternals 2021 IMAX HDR 2160p WEB h265-KOGi
  • Release date: 5 Nov 2021
  • Release year: 2021
  • Runtime: 156 mintues
  • Country: United States
  • Keywords: superhero, marvel comics, marvel cinematic universe, based on comic, based on comic book
Plot:
Following the events of Avengers: Endgame (2019), an unexpected tragedy forces the Eternals, ancient aliens who have been living on Earth in secret for thousands of years, out of the shadows to reunite against mankind's most ancient enemy, the Deviants.

Available in versions:
Other x264 x265 480p 720p 1080p 4k

Files

Eternals.2021.HDR.2160p.WEB.h265-KOGi.mkv (18.9 GB)
Eternals.2021.HDR.2160p.WEB.h265-KOGi.mkv 18.8 GB
RARBG.txt 0 B
eternals.2021.hdr.2160p.web.h265-kogi.sample.mkv 112 MB
eternals.2021.hdr.2160p.web.h265-kogi.nfo 4.8 KB

Description

Screens... :





Infolink -> https://www.imdb.com/title/tt9032400/

Mediainfo


Quote:

Video
ID : 1
Format : HEVC
Format/Info : High Efficiency Video Coding
Format profile : Main [email protected]@High
HDR format : SMPTE ST 2086, HDR10 compatible
Codec ID : V_MPEGH/ISO/HEVC
Duration : 2 h 35 min
Bit rate : 16.5 Mb/s
Width : 3 840 pixels
Height : 2 160 pixels
Display aspect ratio : 16:9
Frame rate mode : Constant
Frame rate : 23.976 (24000/1001) FPS
Color space : YUV
Chroma subsampling : 4:2:0
Bit depth : 10 bits
Bits/(Pixel*Frame) : 0.083
Stream size : 18.0 GiB (96%)
Language : English
Default : Yes
Forced : No
Color range : Limited
Color primaries : BT.2020
Transfer characteristics : PQ
Matrix coefficients : BT.2020 non-constant
Mastering display color primaries : Display P3
Mastering display luminance : min: 0.0000 cd/m2, max: 1000 cd/m2

Audio
ID : 2
Format : E-AC-3 JOC
Format/Info : Enhanced AC-3 with Joint Object Coding
Commercial name : Dolby Digital Plus with Dolby Atmos
Codec ID : A_EAC3
Duration : 2 h 35 min
Bit rate mode : Constant
Bit rate : 768 kb/s
Channel(s) : 6 channels
Channel layout : L R C LFE Ls Rs
Sampling rate : 48.0 kHz
Frame rate : 31.250 FPS (1536 SPF)
Compression mode : Lossy
Stream size : 856 MiB (4%)
Language : English
Service kind : Complete Main
Default : Yes
Forced : No
Complexity index : 16
Number of dynamic objects : 15
Bed channel count : 1 channel
Bed channel configuration : LFE

Text #1
ID : 3
Format : UTF-8
Codec ID : S_TEXT/UTF8
Codec ID/Info : UTF-8 Plain Text
Duration : 2 h 33 min
Bit rate : 50 b/s
Count of elements : 2165
Stream size : 56.9 KiB (0%)
Title : English (SDH)
Language : English
Default : No
Forced : No

Text #2
ID : 4
Format : UTF-8
Codec ID : S_TEXT/UTF8
Codec ID/Info : UTF-8 Plain Text
Duration : 2 h 35 min
Bit rate : 37 b/s
Count of elements : 1108
Stream size : 43.0 KiB (0%)
Title : Dansk
Language : Danish
Default : No
Forced : No

Text #3
ID : 5
Format : UTF-8
Codec ID : S_TEXT/UTF8
Codec ID/Info : UTF-8 Plain Text
Duration : 2 h 35 min
Bit rate : 72 b/s
Count of elements : 1651
Stream size : 82.0 KiB (0%)
Title : Greek
Language : Greek
Default : No
Forced : No

Text #4
ID : 6
Format : UTF-8
Codec ID : S_TEXT/UTF8
Codec ID/Info : UTF-8 Plain Text
Duration : 2 h 35 min
Bit rate : 42 b/s
Count of elements : 1666
Stream size : 48.4 KiB (0%)
Title : Suomi
Language : Finnish
Default : No
Forced : No

Text #5
ID : 7
Format : UTF-8
Codec ID : S_TEXT/UTF8
Codec ID/Info : UTF-8 Plain Text
Duration : 2 h 35 min
Bit rate : 44 b/s
Count of elements : 1694
Stream size : 51.0 KiB (0%)
Title : Français (Canadien)
Language : French
Default : No
Forced : No

Text #6
ID : 8
Format : UTF-8
Codec ID : S_TEXT/UTF8
Codec ID/Info : UTF-8 Plain Text
Duration : 2 h 35 min
Bit rate : 42 b/s
Count of elements : 1644
Stream size : 48.4 KiB (0%)
Title : Íslenska
Language : Icelandic
Default : No
Forced : No

Text #7
ID : 9
Format : UTF-8
Codec ID : S_TEXT/UTF8
Codec ID/Info : UTF-8 Plain Text
Duration : 2 h 35 min
Bit rate : 39 b/s
Count of elements : 1495
Stream size : 44.8 KiB (0%)
Title : Japanese
Language : Japanese
Default : No
Forced : No

Text #8
ID : 10
Format : UTF-8
Codec ID : S_TEXT/UTF8
Codec ID/Info : UTF-8 Plain Text
Duration : 2 h 35 min
Bit rate : 39 b/s
Count of elements : 1400
Stream size : 45.0 KiB (0%)
Title : Nederlands
Language : Dutch
Default : No
Forced : No

Text #9
ID : 11
Format : UTF-8
Codec ID : S_TEXT/UTF8
Codec ID/Info : UTF-8 Plain Text
Duration : 2 h 35 min
Bit rate : 39 b/s
Count of elements : 1653
Stream size : 44.4 KiB (0%)
Title : Norsk
Language : Norwegian
Default : No
Forced : No

Text #10
ID : 12
Format : UTF-8
Codec ID : S_TEXT/UTF8
Codec ID/Info : UTF-8 Plain Text
Duration : 2 h 35 min
Bit rate : 38 b/s
Count of elements : 1602
Stream size : 43.5 KiB (0%)
Title : Polski
Language : Polish
Default : No
Forced : No

Text #11
ID : 13
Format : UTF-8
Codec ID : S_TEXT/UTF8
Codec ID/Info : UTF-8 Plain Text
Duration : 2 h 35 min
Bit rate : 40 b/s
Count of elements : 1635
Stream size : 46.5 KiB (0%)
Title : Português
Language : Portuguese
Default : No
Forced : No

Text #12
ID : 14
Format : UTF-8
Codec ID : S_TEXT/UTF8
Codec ID/Info : UTF-8 Plain Text
Duration : 2 h 35 min
Bit rate : 39 b/s
Count of elements : 1316
Stream size : 44.5 KiB (0%)
Title : Svenska
Language : Swedish
Default : No
Forced : No

Text #13
ID : 15
Format : UTF-8
Codec ID : S_TEXT/UTF8
Codec ID/Info : UTF-8 Plain Text
Duration : 2 h 35 min
Bit rate : 39 b/s
Count of elements : 1677
Stream size : 45.4 KiB (0%)
Title : Chinese (Simplified)
Language : Chinese
Default : No
Forced : No

Text #14
ID : 16
Format : UTF-8
Codec ID : S_TEXT/UTF8
Codec ID/Info : UTF-8 Plain Text
Duration : 2 h 35 min
Bit rate : 33 b/s
Count of elements : 1663
Stream size : 37.8 KiB (0%)
Title : Chinese (Hong Kong)
Language : Chinese
Default : No
Forced : No

Text #15
ID : 17
Format : UTF-8
Codec ID : S_TEXT/UTF8
Codec ID/Info : UTF-8 Plain Text
Duration : 2 h 35 min
Bit rate : 34 b/s
Count of elements : 1679
Stream size : 39.7 KiB (0%)
Title : Chinese (Traditional)
Language : Chinese
Default : No
Forced : No

Related Torrents

Trackers

Tracker name
http://tracker.trackerfix.com:80/announce
udp://9.rarbg.me:2810/announce
udp://9.rarbg.to:2840/announce
udp://tracker.tallpenguin.org:15790/announce
udp://tracker.thinelephant.org:12750/announce
udp://tracker.zer0day.to:1337/announce
udp://tracker.leechers-paradise.org:6969/announce
udp://coppersurfer.tk:6969/announce
Torrent hash: 2ADBA0B23712A6D8C8709D0FADEAE939883D3503

0 Comment

Login to post comments