Eternals 2021 HDCAM 2021 720p x265 HEVC 1GB - NoAds


0

0
seeders: 0 leechers: 0 updated: 2 months ago
Added 2 months ago in Movies
Downloaded 42 times.
Eternals 2021 HDCAM 2021 720p x265 HEVC 1GB - NoAds
  • Release date: 5 Nov 2021
  • Release year: 2021
  • Runtime: 156 mintues
  • Country: United States
  • Keywords: superhero, marvel comics, marvel cinematic universe, based on comic, based on comic book
Plot:
Following the events of Avengers: Endgame (2019), an unexpected tragedy forces the Eternals, ancient aliens who have been living on Earth in secret for thousands of years, out of the shadows to reunite against mankind's most ancient enemy, the Deviants.

Available in versions:
Other x264 x265 480p 720p 1080p 4k

Files

Eternals.2021.HDCAM.2021.720p.x265.HEVC.1GB - NoAds.mkv (998.3 MB)
Eternals.2021.HDCAM.2021.720p.x265.HEVC.1GB - NoAds.mkv 998.3 MB

Description




Video
ID : 1
Format : HEVC
Format/Info : High Efficiency Video Coding
Format profile : [email protected]@Main
Codec ID : V_MPEGH/ISO/HEVC
Duration : 2 h 29 min
Bit rate : 870 kb/s
Width : 1 280 pixels
Height : 568 pixels
Display aspect ratio : 2.25:1
Frame rate mode : Constant
Frame rate : 29.970 (30000/1001) FPS
Color space : YUV
Chroma subsampling : 4:2:0
Bit depth : 8 bits
Bits/(Pixel*Frame) : 0.040
Stream size : 928 MiB (93%)
Default : Yes
Forced : No

Audio
ID : 2
Format : AAC LC SBR
Format/Info : Advanced Audio Codec Low Complexity with Spectral Band Replication
Commercial name : HE-AAC
Format settings : Explicit
Codec ID : A_AAC-2
Duration : 2 h 29 min
Bit rate : 64.0 kb/s
Channel(s) : 2 channels
Channel layout : L R
Sampling rate : 48.0 kHz
Frame rate : 23.438 FPS (2048 SPF)
Compression mode : Lossy
Delay relative to video : 42 ms
Stream size : 68.3 MiB (7%)
Language : English
Default : No
Forced : No

Related Torrents

Trackers

Tracker name
udp://tracker.zer0day.to:1337/announce
udp://tracker.leechers-paradise.org:6969/announce
udp://coppersurfer.tk:6969/announce
Torrent hash: D46326C5CA1605D9BF48614C260F0537FD664641

0 Comment

Login to post comments