Don't Breathe 2 (2021) 1080p UHD 10bit [60FPS] BluRay x265 HEVC [Org Hindi UHD BD 5 1 640Kbps + English AAC 7 1] ESubs ~ MrStrange


0

0
seeders: 3 leechers: 16 updated: 1 week ago
Added 1 week ago in Movies - Dubbed Movies
Downloaded 4 times.
Don't Breathe 2 (2021) 1080p UHD 10bit [60FPS] BluRay x265 HEVC [Org Hindi UHD BD 5 1 640Kbps + English AAC 7 1] ESubs ~ MrStrange
  • Release date: 13 Aug 2021
  • Release year: 2021
  • Runtime: 98 mintues
  • Country: United States, Serbia
  • Keywords: sequel, second part
Plot:
In Don't Breathe 2, the Blind Man has been hiding out for years in an isolated cabin and has taken in and raised a young girl orphaned from a house fire. Their quiet existence is shattered when a group of kidnappers show up and take the girl, forcing the Blind Man to leave his safe haven to save her.

Available in versions:
Other DVD-Rip x264 x265 720p 1080p 4k

Files

Don't Breathe 2 (2021) 1080p UHD 10bit [60FPS] BluRay x265 HEVC [Org Hindi UHD BD 5.1 + English AAC 7.1] ESubs ~ MrStrange.mkv (3.6 GB)
Don't Breathe 2 (2021) 1080p UHD 10bit [60FPS] BluRay x265 HEVC [Org Hindi UHD BD 5.1 + English AAC 7.1] ESubs ~ MrStrange.mkv 3.6 GB

Description

Don't Breathe 2 (2021) 1080p UHD 10bit [60FPS] BluRay x265 HEVC [Org Hindi UHD BD 5.1 640Kbps + English AAC 7.1] ESubs ~ MrStrange





Quote:

Complete name : G:\60FPS\Don't Breathe 2 (2021) 1080p UHD 10bit [60FPS] BluRay x265 HEVC [Org Hindi UHD BD 5.1 + English AAC 7.1] ESubs ~ MrStrange.mkv
Format : Matroska
Format version : Version 4
File size : 3.57 GiB
Duration : 1 h 38 min
Overall bit rate : 5 203 kb/s
Movie name : Don't Breathe 2 (2021) 1080p UHD 10bit [60FPS] BluRay x265 HEVC [Org Hindi UHD BD 5.1 + English AAC 7.1] ESubs ~ MrStrange
Encoded date : UTC 2021-11-25 14:50:45
Writing application : mkvmerge v47.0.0 ('Black Flag') 64-bit
Writing library : libebml v1.3.10 + libmatroska v1.5.2

Video
ID : 1
Format : HEVC
Format/Info : High Efficiency Video Coding
Format profile : Main [email protected]@Main
Codec ID : V_MPEGH/ISO/HEVC
Duration : 1 h 38 min
Bit rate : 4 099 kb/s
Width : 1 920 pixels
Height : 800 pixels
Display aspect ratio : 2.40:1
Frame rate mode : Constant
Frame rate : 59.940 (59940/1000) FPS
Original frame rate : 59.940 (60000/1001) FPS
Color space : YUV
Chroma subsampling : 4:2:0
Bit depth : 10 bits
Bits/(Pixel*Frame) : 0.045
Stream size : 2.81 GiB (79%)
Title : Encoded by Mr. Strange
Writing library : x265 1.5+88-0e89af0781ee:[Windows][GCC 4.8.2][64 bit] 16bpp
Encoding settings : wpp / ctu=64 / min-cu-size=8 / max-tu-size=32 / tu-intra-depth=1 / tu-inter-depth=1 / me=1 / subme=2 / merange=57 / no-rect / no-amp / max-merge=2 / temporal-mvp / no-early-skip / rdpenalty=0 / no-tskip / no-tskip-fast / strong-intra-smoothing / no-lossless / no-cu-lossless / no-constrained-intra / no-fast-intra / open-gop / no-temporal-layers / interlace=0 / keyint=594 / min-keyint=59 / scenecut=40 / rc-lookahead=100 / bframes=5 / bframe-bias=0 / b-adapt=2 / ref=4 / weightp / weightb / aq-mode=1 / aq-strength=1.00 / cbqpoffs=0 / crqpoffs=0 / rd=3 / psy-rd=0.30 / psy-rdoq=0.00 / signhide / lft / sao / no-sao-non-deblock / b-pyramid / cutree / rc=crf / crf=17.0 / qcomp=0.60 / qpmin=0 / qpmax=51 / qpstep=4 / ipratio=1.40 / pbratio=1.30
Default : Yes
Forced : No

Audio #1
ID : 2
Format : AC-3
Format/Info : Audio Coding 3
Commercial name : Dolby Digital
Codec ID : A_AC3
Duration : 1 h 38 min
Bit rate mode : Constant
Bit rate : 640 kb/s
Channel(s) : 6 channels
Channel layout : L R C LFE Ls Rs
Sampling rate : 48.0 kHz
Frame rate : 31.250 FPS (1536 SPF)
Compression mode : Lossy
Stream size : 450 MiB (12%)
Title : Org हिन्दी UHD BD 5.1Ch 640Kbps ~ Strange
Language : Hindi
Service kind : Complete Main
Default : Yes
Forced : No

Audio #2
ID : 3
Format : AAC LC SBR
Format/Info : Advanced Audio Codec Low Complexity with Spectral Band Replication
Commercial name : HE-AAC
Format settings : Explicit
Codec ID : A_AAC-2
Duration : 1 h 38 min
Bit rate : 448 kb/s
Channel(s) : 8 channels
Channel layout : C L R Ls Rs Lb Rb LFE
Sampling rate : 48.0 kHz
Frame rate : 23.438 FPS (2048 SPF)
Compression mode : Lossy
Stream size : 315 MiB (9%)
Title : English AAC 7.1
Language : English
Default : No
Forced : No

Text #1
ID : 4
ID in the original source medium : 4768 (0x12A0)
Format : PGS
Muxing mode : zlib
Codec ID : S_HDMV/PGS
Codec ID/Info : Picture based subtitle format used on BDs/HD-DVDs
Duration : 1 h 30 min
Bit rate : 14.9 kb/s
Count of elements : 1466
Stream size : 9.67 MiB (0%)
Title : Eng BD-PGS
Language : English
Default : No
Forced : No
Original source medium : Blu-ray

Text #2
ID : 5
ID in the original source medium : 4769 (0x12A1)
Format : PGS
Muxing mode : zlib
Codec ID : S_HDMV/PGS
Codec ID/Info : Picture based subtitle format used on BDs/HD-DVDs
Duration : 1 h 26 min
Bit rate : 9 894 b/s
Count of elements : 986
Stream size : 6.15 MiB (0%)
Title : Eng BD-PGS-SDH
Language : English
Default : No
Forced : No
Original source medium : Blu-ray

Menu
00:00:00.000 : en:Chapter 01
00:04:06.037 : en:Chapter 02
00:08:39.477 : en:Chapter 03
00:13:10.539 : en:Chapter 04
00:19:12.776 : en:Chapter 05
00:24:10.449 : en:Chapter 06
00:28:03.890 : en:Chapter 07
00:31:33.933 : en:Chapter 08
00:37:14.774 : en:Chapter 09
00:41:25.941 : en:Chapter 10
00:45:21.593 : en:Chapter 11
00:50:37.242 : en:Chapter 12
00:55:42.630 : en:Chapter 13
01:02:19.861 : en:Chapter 14
01:09:26.245 : en:Chapter 15
01:18:19.319 : en:Chapter 16






S C R E E N S H O T S





Quote:

???? Encoding Source — Dont.Breathe.2.2021.2160p.BluRay.x265.10bit.SDR.DTS-HD.MA.TrueHD.7.1.Atmos-SWTYBLZ [25.7 GB]
???? Audio Credit :~ Org Untouched Bluray UHD BD 5.1Ch 640Kbps Hindi Audio ~ TombDoc

Related Torrents

Trackers

Tracker name
http://gwp2-v19.rinet.ru:80/announce
http://h4.trakx.nibba.trade:80/announce
http://open.acgtracker.com:1096/announce
http://open.trackerlist.xyz:80/announce
http://retracker.sevstar.net:2710/announce
http://t.acg.rip:6699/announce
http://t.nyaatracker.com:80/announce
http://tracker.bt4g.com:2095/announce
http://tracker.dler.org:6969/announce
http://tracker.files.fm:6969/announce
http://tracker.gbitt.info:80/announce
http://tracker.torrentyorg.pl:80/announce
http://tracker.ygsub.com:6969/announce
http://tracker.yoshi210.com:6969/announce
udp://tracker.zer0day.to:1337/announce
udp://tracker.leechers-paradise.org:6969/announce
udp://coppersurfer.tk:6969/announce
Torrent hash: EE78B47E834F0B38262BE19D68E3753303F310FE

0 Comment

Login to post comments