Don't Breathe 2 (2021) 1080p BluRay x264 Dual Audio [Hindi BD DD5 1-English DD5 1] ESUBS-Ranvijay


0

0
seeders: 4 leechers: 1 updated: 1 week ago
Added 1 week ago in Movies - Dubbed Movies
Downloaded 4 times.
Don't Breathe 2 (2021) 1080p BluRay x264 Dual Audio [Hindi BD DD5 1-English DD5 1] ESUBS-Ranvijay
  • Release date: 13 Aug 2021
  • Release year: 2021
  • Runtime: 98 mintues
  • Country: United States, Serbia
  • Keywords: sequel, second part
Plot:
In Don't Breathe 2, the Blind Man has been hiding out for years in an isolated cabin and has taken in and raised a young girl orphaned from a house fire. Their quiet existence is shattered when a group of kidnappers show up and take the girl, forcing the Blind Man to leave his safe haven to save her.

Available in versions:
Other DVD-Rip x264 x265 720p 1080p 4k

Files

Don't Breathe 2 (2021) 1080p BluRay x264 Dual Audio [Hindi BD DD5.1-English DD5.1] ESUBS-Ranvijay.mkv (4.4 GB)
Don't Breathe 2 (2021) 1080p BluRay x264 Dual Audio [Hindi BD DD5.1-English DD5.1] ESUBS-Ranvijay.mkv 4.3 GB
Encoded From WEBPUNDITS.url 102.4 B
Sample-Don't Breathe 2 (2021) 1080p BluRay x264 Dual Audio [Hindi BD DD5.1-English DD5.1] ESUBS-Ranvijay.mkv 53.5 MB
SpecialRDP - Premium & Affordable Web Hosting Solution.url 0 B

Description



Don't Breathe 2 (2021) 1080p BluRay x264 Dual Audio [Hindi BD DD5.1-English DD5.1] ESUBS-Ranvijay


General
Format : Matroska
Format version : Version 4
File size : 4.33 GiB
Duration : 1 h 38 min
Overall bit rate : 6 307 kb/s
Movie name : Don't Breathe 2 (2021) 1080p BluRay x264 Dual Audio [Hindi BD DD5.1-English DD5.1] ESUBS-Ranvijay

Video
ID : 1
Format : AVC
Format/Info : Advanced Video Codec
Format profile : [email protected]
Format settings : CABAC / 5 Ref Frames
Format settings, CABAC : Yes
Format settings, Reference frames : 5 frames
Codec ID : V_MPEG4/ISO/AVC
Duration : 1 h 38 min
Bit rate : 5 000 kb/s
Width : 1 920 pixels
Height : 800 pixels
Display aspect ratio : 2.40:1
Frame rate mode : Constant
Frame rate : 23.976 (24000/1001) FPS
Color space : YUV
Chroma subsampling : 4:2:0
Bit depth : 8 bits
Scan type : Progressive
Bits/(Pixel*Frame) : 0.136
Stream size : 3.43 GiB (79%)
Title : Ranvijay

Audio #1
ID : 2
Format : AC-3
Format/Info : Audio Coding 3
Commercial name : Dolby Digital
Codec ID : A_AC3
Duration : 1 h 38 min
Bit rate mode : Constant
Bit rate : 640 kb/s
Channel(s) : 6 channels
Channel layout : L R C LFE Ls Rs
Sampling rate : 48.0 kHz
Frame rate : 31.250 FPS (1536 SPF)
Compression mode : Lossy
Stream size : 450 MiB (10%)
Title : Ranvijay
Language : Hindi
Service kind : Complete Main
Default : Yes
Forced : Yes

Audio #2
ID : 3
Format : AC-3
Format/Info : Audio Coding 3
Commercial name : Dolby Digital
Codec ID : A_AC3
Duration : 1 h 38 min
Bit rate mode : Constant
Bit rate : 640 kb/s
Channel(s) : 6 channels
Channel layout : L R C LFE Ls Rs
Sampling rate : 48.0 kHz
Frame rate : 31.250 FPS (1536 SPF)
Compression mode : Lossy
Stream size : 450 MiB (10%)
Title : Ranvijay
Language : English
Service kind : Complete Main
Default : No
Forced : Yes

Text #1
ID : 4
Format : PGS
Muxing mode : zlib
Codec ID : S_HDMV/PGS
Codec ID/Info : Picture based subtitle format used on BDs/HD-DVDs
Duration : 1 h 30 min
Bit rate : 14.9 kb/s
Count of elements : 1466
Stream size : 9.67 MiB (0%)
Title : Ranvijay
Language : English
Default : Yes
Forced : Yes

Text #2
ID : 5
Format : PGS
Muxing mode : zlib
Codec ID : S_HDMV/PGS
Codec ID/Info : Picture based subtitle format used on BDs/HD-DVDs
Duration : 1 h 26 min
Bit rate : 9 894 b/s
Count of elements : 986
Stream size : 6.15 MiB (0%)
Title : Ranvijay
Language : English
Default : No
Forced : No

Text #3
ID : 6
Format : PGS
Muxing mode : zlib
Codec ID : S_HDMV/PGS
Codec ID/Info : Picture based subtitle format used on BDs/HD-DVDs
Duration : 1 h 31 min
Bit rate : 37.5 kb/s
Count of elements : 2317
Stream size : 24.6 MiB (1%)
Title : Ranvijay
Language : English
Default : No
Forced : No

Menu
00:00:00.000 : :Chapter 01
00:04:06.371 : :Chapter 02
00:08:39.477 : :Chapter 03
00:13:10.790 : :Chapter 04
00:19:12.777 : :Chapter 05
00:24:10.658 : :Chapter 06
00:28:03.891 : :Chapter 07
00:31:33.934 : :Chapter 08
00:37:15.108 : :Chapter 09
00:41:25.942 : :Chapter 10
00:45:21.928 : :Chapter 11
00:50:37.243 : :Chapter 12
00:55:42.798 : :Chapter 13
01:02:19.861 : :Chapter 14
01:09:26.537 : :Chapter 15
01:18:19.653 : :Chapter 16
01:31:47.293 : :Chapter 17











Related Torrents

Trackers

Tracker name
udp://tracker.opentrackr.org:1337/announce
udp://9.rarbg.to:2710/announce
udp://9.rarbg.me:2710/announce
udp://tracker.leechers-paradise.org:6969/announce
udp://tracker.cyberia.is:6969/announce
udp://exodus.desync.com:6969/announce
udp://explodie.org:6969/announce
udp://p4p.arenabg.ch:1337/announce
http://p4p.arenabg.com:1337/announce
http://tracker3.itzmx.com:6961/announce
http://tracker1.itzmx.com:8080/announce
udp://tracker.zerobytes.xyz:1337/announce
udp://tracker.torrent.eu.org:451/announce
udp://tracker.tiny-vps.com:6969/announce
udp://tracker.zer0day.to:1337/announce
udp://tracker.leechers-paradise.org:6969/announce
udp://coppersurfer.tk:6969/announce
Torrent hash: 7B016483C31C5F8BCC97976B373BF66160AFABC8

0 Comment

Login to post comments