Dark Spell 2021 ITA-RUS 1080p BluRay DDP5 1 x264-gattopollo mkv


0

0
seeders: 1 leechers: 18 updated: 1 week ago
Added 1 week ago in Movies - Highres Movies
Downloaded 2 times.
Dark Spell 2021 ITA-RUS 1080p BluRay DDP5 1 x264-gattopollo mkv
  • Release date: 11 Feb 2021
  • Release year: 2021
  • Runtime: 92 mintues
  • Country: Russia
Plot:
Dark Spell is a story about the girl named Zhenya who suffers from being in love with her husband that has left her, so she decides to bring him back. Desperate heroine casts a spell called "Black Wedding", which is a magical ritual known for its great power and irreversibility. After the ritual, her beloved husband comes back, although his love becomes more like an obsession: he is even ready to kill Zhenya, so as not to give her to anyone. When the maddened husband dies, the spell does not stop: because even death will not part those who were betrothed by the demon of black wedding.

Available in versions:
Other x264 720p 1080p

Files

Dark.Spell.2021.ITA-RUS.1080p.BluRay.DDP5.1.x264-gattopollo.mkv (6.8 GB)
Dark.Spell.2021.ITA-RUS.1080p.BluRay.DDP5.1.x264-gattopollo.mkv 6.8 GB

Description

.:: TITOLO ::.



Dark.Spell.2021.ITA-RUS.1080p.BluRay.DDP5.1.x264-gattopollo







.:: INFO FILM ::.




Titolo originale: Privorot. Chernoe venchanie
Paese: Russia
Genere: Horror
Durata: 92'
Regia : Svyatoslav Podgaevskiy
IMDb

.:: TRAMA ::.

Zhenya (Yana Yenzhayeva), avvilita per essere stata abbandonata dal marito, pensa di ricorrere alla arti occulte per riconquistare il suo amore. Esegue quindi un incantesimo chiamato "Black Wedding", un rituale magico di grande effetto e dall'esito irreversibile. Il suo amato marito ritorna, ma il suo atteggiamento diventa sempre più ossessivo: è persino pronto a uccidere Zhenya, per evitare di essere tradito. Ormai impazzito, l'uomo muore, ma l'incantesimo continua a fare il suo effetto.


.:: SCREENSHOTS ::.





.:: INFO TECNICHE ::.

Sorgente Video: Privorot.Chernoe.venchanie.AKA.Dark.Spell.2021.1080p.BluRay.x264-HANDJOB
Sorgente Audio : AMZN
Risoluzione: 1920x804, x264
Audio 1: ITA E-AC3 6ch @640Kb/s
Audio 2: RUS E-AC3 6ch @640Kb/s
Sottotitoli: ITA FULL

.:: MEDIAINFO ::.




Code:


General
Unique ID : 215690208953144436693761263079693428271 (0xA2446C57B6A08C999787042E57F3262F)
Complete name : Dark.Spell.2021.ITA-RUS.1080p.BluRay.DDP5.1.x264-gattopollo.mkv
Format : Matroska
Format version : Version 4
File size : 6.83 GiB
Duration : 1 h 32 min
Overall bit rate : 10.5 Mb/s
Movie name : Privorot. Chernoe venchanie AKA Dark Spell [2021] 1080p BluRay - HJ
Encoded date : UTC 2022-01-13 19:58:30
Writing application : mkvmerge v64.0.0 ('Willows') 64-bit
Writing library : libebml v1.4.2 + libmatroska v1.6.4

Video
ID : 1
Format : AVC
Format/Info : Advanced Video Codec
Format profile : [email protected]
Format settings : CABAC / 5 Ref Frames
Format settings, CABAC : Yes
Format settings, Reference frames : 5 frames
Codec ID : V_MPEG4/ISO/AVC
Duration : 1 h 32 min
Bit rate : 9 246 kb/s
Width : 1 920 pixels
Height : 804 pixels
Display aspect ratio : 2.40:1
Frame rate mode : Constant
Frame rate : 24.000 FPS
Original frame rate : 23.976 (24000/1001) FPS
Color space : YUV
Chroma subsampling : 4:2:0
Bit depth : 8 bits
Scan type : Progressive
Bits/(Pixel*Frame) : 0.250
Stream size : 6.00 GiB (88%)
Writing library : x264 core 157 r2935 545de2f
Encoding settings : cabac=1 / ref=5 / deblock=1:-3:-3 / analyse=0x3:0x133 / me=umh / subme=11 / psy=1 / psy_rd=1.00:0.00 / mixed_ref=1 / me_range=32 / chroma_me=1 / trellis=2 / 8x8dct=1 / cqm=0 / deadzone=21,11 / fast_pskip=0 / chroma_qp_offset=-2 / threads=24 / lookahead_threads=6 / sliced_threads=0 / nr=0 / decimate=0 / interlaced=0 / bluray_compat=0 / constrained_intra=0 / bframes=16 / b_pyramid=2 / b_adapt=2 / b_bias=0 / direct=3 / weightb=1 / open_gop=0 / weightp=2 / keyint=240 / keyint_min=24 / scenecut=40 / intra_refresh=0 / rc_lookahead=60 / rc=crf / mbtree=0 / crf=17.0 / qcomp=0.60 / qpmin=0 / qpmax=69 / qpstep=4 / vbv_maxrate=62500 / vbv_bufsize=78125 / crf_max=0.0 / nal_hrd=none / filler=0 / ip_ratio=1.40 / pb_ratio=1.30 / aq=2:1.00
Language : Russian
Default : Yes
Forced : No
Color range : Limited
Color primaries : BT.709
Transfer characteristics : BT.709
Matrix coefficients : BT.709

Audio #1
ID : 2
Format : E-AC-3
Format/Info : Enhanced AC-3
Commercial name : Dolby Digital Plus
Codec ID : A_EAC3
Duration : 1 h 32 min
Bit rate mode : Constant
Bit rate : 640 kb/s
Channel(s) : 6 channels
Channel layout : L R C LFE Ls Rs
Sampling rate : 48.0 kHz
Frame rate : 31.250 FPS (1536 SPF)
Compression mode : Lossy
Delay relative to video : 541 ms
Stream size : 425 MiB (6%)
Language : Italian
Service kind : Complete Main
Default : Yes
Forced : No

Audio #2
ID : 3
Format : E-AC-3
Format/Info : Enhanced AC-3
Commercial name : Dolby Digital Plus
Codec ID : A_EAC3
Duration : 1 h 32 min
Bit rate mode : Constant
Bit rate : 640 kb/s
Channel(s) : 6 channels
Channel layout : L R C LFE Ls Rs
Sampling rate : 48.0 kHz
Frame rate : 31.250 FPS (1536 SPF)
Compression mode : Lossy
Delay relative to video : 541 ms
Stream size : 425 MiB (6%)
Language : Russian
Service kind : Complete Main
Default : No
Forced : No

Text
ID : 4
Format : UTF-8
Codec ID : S_TEXT/UTF8
Codec ID/Info : UTF-8 Plain Text
Duration : 1 h 27 min
Bit rate : 25 b/s
Count of elements : 549
Stream size : 16.6 KiB (0%)
Language : Italian
Default : No
Forced : No

Menu
00:00:00.000 : :Chapter 1
00:08:23.333 : :Chapter 2
00:18:39.041 : :Chapter 3
00:26:13.291 : :Chapter 4
00:37:03.291 : :Chapter 5
00:46:37.000 : :Chapter 6
00:53:55.500 : :Chapter 7
01:01:35.291 : :Chapter 8
01:09:20.541 : :Chapter 9
01:16:44.333 : :Chapter 10
01:22:49.000 : :Chapter 11
01:29:06.541 : :Chapter 12









.:: TORRENT LINK ::.

Related Torrents

Trackers

Tracker name
udp://tracker.opentrackr.org:1337/announce
http://tracker.files.fm:6969/announce
http://open.acgnxtracker.com:80/announce
udp://tracker2.dler.com:80/announce
udp://discord.heihachi.pw:6969/announce
udp://fe.dealclub.de:6969/announce
udp://mail.realliferpg.de:6969/announce
udp://movies.zsw.ca:6969/announce
udp://code2chicken.nl:6969/announce
udp://tracker.0x.tf:6969/announce
udp://tracker.zer0day.to:1337/announce
udp://tracker.leechers-paradise.org:6969/announce
udp://coppersurfer.tk:6969/announce
Torrent hash: D3105DC642B474BE473651270E1B36AD4A412AEE

0 Comment

Login to post comments