Cinderella 2021 [HQ Hindi Dubbed] 720p WEBRip - Shieldli - LHM123


0

0
seeders: 4 leechers: 32 updated: 4 weeks ago
Added 4 weeks ago in Movies
Downloaded 12 times.
Cinderella 2021 [HQ Hindi Dubbed] 720p WEBRip - Shieldli - LHM123
  • Release date: 3 Sep 2021
  • Release year: 2021
  • Runtime: 113 mintues
  • Country: United States, United Kingdom
  • Keywords: fairy, based on fairy tale, fairy tale, magic, magical
Plot:
A modern movie musical with a bold take on the classic fairy tale. Our ambitious heroine has big dreams and with the help of her fab Godmother, she perseveres to make them come true.

Available in versions:
Other x264 720p 1080p 4k

Files

Cinderella 2021 [HQ Hindi Dubbed] 720p WEBRip - Shieldli - LHM123.mkv (1.1 GB)
Cinderella 2021 [HQ Hindi Dubbed] 720p WEBRip - Shieldli - LHM123.mkv 1.1 GB

Description

No Ads No Watermark









General
Unique ID                                : 65844432523047977475963768617667811541 (0x31892D2A4D6552D336EDCD5453EE58D5)
Complete name                            : Cinderella 2021 [HQ Hindi Dubbed] 720p WEBRip - Shieldli - LHM123.mkv
Format                                   : Matroska
Format version                           : Version 4
File size                                : 1.08 GiB
Duration                                 : 1 h 52 min
Overall bit rate                         : 1 374 kb/s
Movie name                               : Uploaded By ::::Shieldli - LHM123::::
Encoded date                             : UTC 2021-09-18 13:56:50
Writing application                      : mkvmerge v53.0.0 ('Fool's Gold') 64-bit
Writing library                          : libebml v1.4.1 + libmatroska v1.6.2 / Lavf58.20.100

Video
ID                                       : 1
Format                                   : AVC
Format/Info                              : Advanced Video Codec
Format profile                           : [email protected]
Format settings                          : CABAC / 4 Ref Frames
Format settings, CABAC                   : Yes
Format settings, Reference frames        : 4 frames
Codec ID                                 : V_MPEG4/ISO/AVC
Duration                                 : 1 h 52 min
Bit rate                                 : 1 200 kb/s
Width                                    : 1 280 pixels
Height                                   : 544 pixels
Display aspect ratio                     : 2.40:1
Frame rate mode                          : Constant
Frame rate                               : 24.000 FPS
Color space                              : YUV
Chroma subsampling                       : 4:2:0
Bit depth                                : 8 bits
Scan type                                : Progressive
Bits/(Pixel*Frame)                       : 0.072
Stream size                              : 949 MiB (86%)
Title                                    : Shieldli - LHM123
Writing library                          : x264 core 157 r2935 545de2f
Encoding settings                        : cabac=1 / ref=2 / deblock=1:0:0 / analyse=0x1:0x111 / me=hex / subme=6 / psy=1 / psy_rd=1.00:0.00 / mixed_ref=1 / me_range=16 / chroma_me=1 / trellis=1 / 8x8dct=0 / cqm=0 / deadzone=21,11 / fast_pskip=1 / chroma_qp_offset=-2 / threads=6 / lookahead_threads=1 / sliced_threads=0 / nr=0 / decimate=1 / interlaced=0 / bluray_compat=0 / constrained_intra=0 / bframes=3 / b_pyramid=2 / b_adapt=1 / b_bias=0 / direct=1 / weightb=1 / open_gop=0 / weightp=1 / keyint=240 / keyint_min=24 / scenecut=40 / intra_refresh=0 / rc_lookahead=30 / rc=abr / mbtree=1 / bitrate=1200 / ratetol=1.0 / qcomp=0.60 / qpmin=0 / qpmax=69 / qpstep=4 / vbv_maxrate=20000 / vbv_bufsize=25000 / nal_hrd=none / filler=0 / ip_ratio=1.40 / aq=1:1.00
Default                                  : Yes
Forced                                   : No
Color range                              : Limited
Color primaries                          : BT.709
Transfer characteristics                 : BT.709
Matrix coefficients                      : BT.709

Audio
ID                                       : 2
Format                                   : AAC LC
Format/Info                              : Advanced Audio Codec Low Complexity
Codec ID                                 : A_AAC-2
Duration                                 : 1 h 52 min
Bit rate                                 : 192 kb/s
Channel(s)                               : 6 channels
Channel layout                           : C L R Ls Rs LFE
Sampling rate                            : 44.1 kHz
Frame rate                               : 43.066 FPS (1024 SPF)
Compression mode                         : Lossy
Delay relative to video                  : -23 ms
Stream size                              : 154 MiB (14%)
Title                                    : Shieldli - LHM123
Default                                  : Yes
Forced                                   : No






Related Torrents

Trackers

Tracker name
udp://fasttracker.foreverpirates.co:6969/announce
udp://tracker.opentrackr.org:1337/announce
udp://explodie.org:6969/announce
udp://tracker.cyberia.is:6969/announce
udp://ipv4.tracker.harry.lu:80/announce
udp://tracker.uw0.xyz:6969/announce
udp://opentracker.i2p.rocks:6969/announce
udp://tracker.birkenwald.de:6969/announce
udp://tracker.torrent.eu.org:451/announce
udp://tracker.moeking.me:6969/announce
udp://opentor.org:2710/announce
udp://tracker.dler.org:6969/announce
udp://tracker.zer0day.to:1337/announce
udp://tracker.leechers-paradise.org:6969/announce
udp://tracker.zer0day.to:1337/announce
udp://tracker.leechers-paradise.org:6969/announce
udp://coppersurfer.tk:6969/announce
Torrent hash: 284710A7357D0C5D0C72BB10250A7CF2E49BBB3A

Location

1 4987740

0 Comment

Login to post comments