Chhorii (2021) 720p 10bit AMZN WEBRip x265 HEVC Hindi AAC 5 1 ESub ~ Immortal


0

0
seeders: 4 leechers: 39 updated: 1 week ago
Added 1 week ago in Movies - Bollywood
Downloaded 18 times.
Chhorii (2021) 720p 10bit AMZN WEBRip x265 HEVC Hindi AAC 5 1 ESub ~ Immortal
  • Release date: 26 Nov 2021
  • Release year: 2021
  • Keywords: evil
Plot:
Chhorii is a haunting story of a young couple based in the heartlands of India. Sakshi (Nushrratt Bharuccha) is eight months pregnant when the couple, forced out of their home, seeks refuge in a house hidden inside a sugarcane field. However, the fields are ridden with secrets of the past which start unravelling as the film unfolds, posing a threat to the mother and her unborn child. Even as Sakshi tries to save herself and her unborn baby, sighting of three mysterious kids and a charred women coupled with a soul-stirring lullaby emanating from an old transistor wreaks havoc with her sanity. Will Sakshi be able to save herself? Will she be able to protect her unborn child? And most importantly, will Sakshi be able to get out of the maze like fields? Sakshi's quest to find the answers to all these questions takes us on a journey that's got horror, thrills and chills, all in equal proportions.

Available in versions:
720p 1080p

Files

Chhorii (2021) 720p 10bit AMZN WEBRip x265 HEVC Hindi AAC 5.1 ESub ~ Immortal.mkv (902.4 MB)
Chhorii (2021) 720p 10bit AMZN WEBRip x265 HEVC Hindi AAC 5.1 ESub ~ Immortal.mkv 902.4 MB

Description

Chhorii (2021) 720p 10bit AMZN WEBRip x265 HEVC Hindi AAC 5.1 ESub ~ Immortal



Video
ID : 1
Format : HEVC
Format/Info : High Efficiency Video Coding
Format profile : Main [email protected]@Main
Codec ID : V_MPEGH/ISO/HEVC
Duration : 2 h 9 min
Bit rate : 790 kb/s
Width : 1 280 pixels
Height : 534 pixels
Display aspect ratio : 2.40:1
Frame rate mode : Constant
Frame rate : 24.000 FPS
Color space : YUV
Chroma subsampling : 4:2:0
Bit depth : 10 bits
Bits/(Pixel*Frame) : 0.048
Stream size : 730 MiB (81%)
Title : Encoded By ~ Immortal
Language : Hindi
Default : Yes
Forced : No
Color range : Limited
Color primaries : BT.709
Transfer characteristics : BT.709
Matrix coefficients : BT.709

Audio
ID : 2
Format : AAC LC
Format/Info : Advanced Audio Codec Low Complexity
Codec ID : A_AAC-2
Duration : 2 h 9 min
Bit rate : 184 kb/s
Channel(s) : 6 channels
Channel layout : C L R Ls Rs LFE
Sampling rate : 48.0 kHz
Frame rate : 46.875 FPS (1024 SPF)
Compression mode : Lossy
Delay relative to video : -21 ms
Stream size : 170 MiB (19%)
Title : Hindi AAC 5.1 ~ Immortal
Language : Hindi
Default : Yes
Forced : No

Text
ID : 3
Format : ASS
Codec ID : S_TEXT/ASS
Codec ID/Info : Advanced Sub Station Alpha
Duration : 2 h 1 min
Bit rate : 51 b/s
Count of elements : 950
Compression mode : Lossless
Stream size : 46.0 KiB (0%)
Title : English [SDH]
Language : English
Default : No
Forced : No













Quote:

???? Encoding Source :— Chhorii.2021.1080p.AMZN.WEB.DL.H264.DDP5.1-DDH (5.54GB) ????

Related Torrents

Trackers

Tracker name
udp://tracker.opentrackr.org:1337/announce
udp://9.rarbg.com:2810/announce
udp://tracker.openbittorrent.com:6969/announce
udp://exodus.desync.com:6969/announce
http://tracker.openbittorrent.com:80/announce
http://openbittorrent.com:80/announce
udp://www.torrent.eu.org:451/announce
udp://vibe.community:6969/announce
udp://u.wwwww.wtf:1/announce
udp://tracker1.bt.moack.co.kr:80/announce
udp://tracker0.ufibox.com:6969/announce
udp://tracker.zerobytes.xyz:1337/announce
udp://tracker.torrent.eu.org:451/announce
udp://tracker.moeking.me:6969/announce
udp://tracker.zer0day.to:1337/announce
udp://tracker.leechers-paradise.org:6969/announce
udp://coppersurfer.tk:6969/announce
Torrent hash: BF9677115289349E89D1EDAFD854E5C10AC10F68

0 Comment

Login to post comments