Bruised 2021 x264 720p NeTfLiX WebHD Esub AAC English Hindi THE GOPI SAHI


0

0
seeders: 2 leechers: 22 updated: 1 week ago
Added 1 week ago in Movies - Dubbed Movies
Downloaded 5 times.
Bruised 2021 x264 720p NeTfLiX WebHD Esub AAC English Hindi THE GOPI SAHI
  • Release date: 24 Nov 2021
  • Release year: 2021
  • Runtime: 129 mintues
  • Country: United States, United Kingdom
  • Keywords: mixed martial arts, fighter, career, woman, justice
  • Budget: $11,000,000
Plot:
Jackie Justice is a mixed martial arts fighter who leaves the sport in disgrace. Down on her luck and simmering with rage and regret years after the fight, she's coaxed into a brutal underground fight by her manager and boyfriend Desi and grabs the attention of a fight league promoter who promises Jackie a life back in the Octagon. But the road to redemption becomes unexpectedly personal when Manny - the son she gave up as an infant - shows up at her doorstep. A triumphant story of a fighter who reclaims her power, in and out of the ring, when everyone has counted her out.

Available in versions:
Other x264 720p 1080p

Files

Bruised 2021 x264 720p NeTfLiX WebHD Esub AAC English Hindi THE GOPI SAHI.mkv (1.1 GB)
Bruised 2021 x264 720p NeTfLiX WebHD Esub AAC English Hindi THE GOPI SAHI.mkv 1.1 GB

Description

Greets

Admin , Moderator , Noir, Ex0duS5150, theeshiznit, MisterQ, UserHEVC, miok, Silmarillion, Mr. Blue, MaDHeX and many more ;

Join Us On TeleGram

https://t.me/joinchat/A6E91VCaHNo1Mjll



Bruised 2021 x264 720p NeTfLiX WebHD Esub AAC English Hindi THE GOPI SAHI

Format : Matroska

Format version : Version 4

File size : 1.10 GiB

Duration : 2 h 12 min

Overall bit rate : 1 186 kb/s

Movie name : Bruised 2021 GOPI SAHI

Encoded date : UTC 2021-11-24 15:08:07

Video

ID : 1

Format : AVC

Format/Info : Advanced Video Codec

Format profile : [email protected]

Format settings : CABAC / 12 Ref Frames

Format settings, CABAC : Yes

Format settings, Reference fra : 12 frames

Codec ID : V_MPEG4/ISO/AVC

Duration : 2 h 12 min

Bit rate : 899 kb/s

Width : 1 280 pixels

Height : 534 pixels

Display aspect ratio : 2.40:1

Frame rate mode : Constant

Frame rate : 23.976 (24000/1001) FPS

Color space : YUV

Chroma subsampling : 4:2:0

Bit depth : 8 bits

Scan type : Progressive

Bits/(Pixel*Frame) : 0.055

Stream size : 852 MiB (76%)

Title : GOPI SAHI

Writing library : x264 core 163 r3059 b684ebe0



Audio #1

ID : 2

Format : AAC LC

Format/Info : Advanced Audio Codec Low Complexity

Codec ID : A_AAC-2

Duration : 2 h 12 min

Bit rate : 192 kb/s

Channel(s) : 6 channels

Channel layout : C L R Ls Rs LFE

Sampling rate : 48.0 kHz

Frame rate : 46.875 FPS (1024 SPF)

Compression mode : Lossy

Delay relative to video : -21 ms

Stream size : 180 MiB (16%)

Title : GOPI SAHI

Language : Hindi

Default : Yes

Forced : No


Audio #2

ID : 3

Format : AAC LC

Format/Info : Advanced Audio Codec Low Complexity

Codec ID : A_AAC-2

Duration : 2 h 12 min

Bit rate : 96.0 kb/s

Channel(s) : 2 channels

Channel layout : L R

Sampling rate : 48.0 kHz

Frame rate : 46.875 FPS (1024 SPF)

Compression mode : Lossy

Delay relative to video : -21 ms

Stream size : 90.2 MiB (8%)

Title : GOPI SAHI

Language : English

Default : No

Forced : No


Text

Language : English





Related Torrents

Trackers

Tracker name
udp://p4p.arenabg.com:1337/announce
udp://exodus.desync.com:6969/announce
udp://tracker.sbsub.com:2710/announce
udp://tracker.opentrackr.org:1337/announce
udp://open.stealth.si:80/announce
udp://retracker.lanta-net.ru:2710/announce
http://bt1.archive.org:6969/announce
http://bt2.archive.org:6969/announce
http://tracker.files.fm:6969/announce
udp://tracker.zerobytes.xyz:1337/announce
https://tracker.nitrix.me:443/announce
udp://cutiegirl.ru:6969/announce
udp://vibe.community:6969/announce
udp://wassermann.online:6969/announce
udp://tracker.zer0day.to:1337/announce
udp://tracker.leechers-paradise.org:6969/announce
udp://coppersurfer.tk:6969/announce
Torrent hash: 69F4AE21A70C9C5B3398989C51B4D1FE8ABC60FB

0 Comment

Login to post comments