Bruised 2020 1080p WEBRip x265


0

0
seeders: 0 leechers: 0 updated: 1 week ago
Added 1 week ago in Movies
Downloaded 0 time.
Bruised 2020 1080p WEBRip x265
  • Release date: 24 Nov 2021
  • Release year: 2021
  • Runtime: 129 mintues
  • Country: United States, United Kingdom
  • Keywords: mixed martial arts, fighter, career, woman, justice
  • Budget: $11,000,000
Plot:
Jackie Justice is a mixed martial arts fighter who leaves the sport in disgrace. Down on her luck and simmering with rage and regret years after the fight, she's coaxed into a brutal underground fight by her manager and boyfriend Desi and grabs the attention of a fight league promoter who promises Jackie a life back in the Octagon. But the road to redemption becomes unexpectedly personal when Manny - the son she gave up as an infant - shows up at her doorstep. A triumphant story of a fighter who reclaims her power, in and out of the ring, when everyone has counted her out.

Available in versions:
Other x264 720p 1080p

Files

Bruised.2020.1080p.WEBRip.x265-RARBG.mp4 (2.1 GB)
â–¼ show more 16 files
Bruised.2020.1080p.WEBRip.x265-RARBG.mp4 2.1 GB
RARBG.txt 0 B
RARBG_DO_NOT_MIRROR.exe 102.4 B
10_Spanish.srt 80.4 KB
11_Finnish.srt 67.9 KB
12_French.srt 78.6 KB
13_German.srt 82.1 KB
14_Greek.srt 105.3 KB
15_Hebrew.srt 97.8 KB
16_Hungarian.srt 80.4 KB
17_Italian.srt 81 KB
18_Japanese.srt 83.7 KB
19_Korean.srt 83.6 KB
20_Bokmal.srt 69.9 KB
21_Polish.srt 74 KB
22_Portuguese.srt 81.2 KB
23_Portuguese.srt 78.4 KB
24_Romanian.srt 84.7 KB
25_Russian.srt 100.9 KB
26_Spanish.srt 80.2 KB
27_Swedish.srt 67.9 KB
28_Turkish.srt 81 KB
29_ukr.srt 104.8 KB
2_English.srt 120.5 KB
3_Arabic.srt 118.3 KB
4_Chinese.srt 89.9 KB
5_Chinese.srt 88.5 KB
6_hrv.srt 77.3 KB
7_Czech.srt 79.1 KB
8_Danish.srt 78.7 KB
9_Dutch.srt 77.2 KB

Description

Screens... (click to enlarge):









Infolink -> https://www.imdb.com/title/tt8310474/

Mediainfo


Quote:

Video
ID : 1
Format : HEVC
Format/Info : High Efficiency Video Coding
Format profile : Main [email protected]@Main
Codec ID : hev1
Codec ID/Info : High Efficiency Video Coding
Duration : 2 h 12 min
Bit rate : 2 001 kb/s
Width : 1 920 pixels
Height : 800 pixels
Display aspect ratio : 2.40:1
Frame rate mode : Constant
Frame rate : 23.976 (24000/1001) FPS
Color space : YUV
Chroma subsampling : 4:2:0
Bit depth : 10 bits
Bits/(Pixel*Frame) : 0.054
Stream size : 1.85 GiB (90%)
Writing library : x265 3.3+4-rarbg-30eb4de83092:[Linux][GCC 8.3.1][64 bit] 10bit
Encoding settings : cpuid=1111039 / frame-threads=4 / wpp / no-pmode / no-pme / no-psnr / no-ssim / log-level=2 / input-csp=1 / input-res=1920x800 / interlace=0 / total-frames=0 / level-idc=0 / high-tier=1 / uhd-bd=0 / ref=4 / no-allow-non-conformance / no-repeat-headers / annexb / no-aud / no-hrd / info / hash=0 / no-temporal-layers / open-gop / min-keyint=23 / keyint=250 / gop-lookahead=0 / bframes=4 / b-adapt=2 / b-pyramid / bframe-bias=0 / rc-lookahead=25 / lookahead-slices=4 / scenecut=40 / hist-scenecut=0 / radl=0 / no-splice / no-intra-refresh / ctu=64 / min-cu-size=8 / rect / no-amp / max-tu-size=32 / tu-inter-depth=1 / tu-intra-depth=1 / limit-tu=0 / rdoq-level=2 / dynamic-rd=0.00 / no-ssim-rd / signhide / no-tskip / nr-intra=0 / nr-inter=0 / no-constrained-intra / strong-intra-smoothing / max-merge=3 / limit-refs=3 / limit-modes / me=3 / subme=3 / merange=57 / temporal-mvp / no-frame-dup / no-hme / weightp / no-weightb / no-analyze-src-pics / deblock=0:0 / no-sao / no-sao-non-deblock / rd=4 / selective-sao=0 / no-early-skip / rskip / no-fast-intra / no-tskip-fast / no-cu-lossless / no-b-intra / no-splitrd-skip / rdpenalty=0 / psy-rd=2.00 / psy-rdoq=1.00 / no-rd-refine / no-lossless / cbqpoffs=0 / crqpoffs=0 / rc=abr / bitrate=2000 / qcomp=0.60 / qpstep=4 / stats-write=0 / stats-read=2 / cplxblur=20.0 / qblur=0.5 / ipratio=1.40 / pbratio=1.30 / aq-mode=3 / aq-strength=1.00 / cutree / zone-count=0 / no-strict-cbr / qg-size=32 / no-rc-grain / qpmax=69 / qpmin=0 / no-const-vbv / sar=1 / overscan=0 / videoformat=5 / range=0 / colorprim=2 / transfer=2 / colormatrix=2 / chromaloc=0 / display-window=0 / cll=0,0 / min-luma=0 / max-luma=1023 / log2-max-poc-lsb=8 / vui-timing-info / vui-hrd-info / slices=1 / no-opt-qp-pps / no-opt-ref-list-length-pps / no-multi-pass-opt-rps / scenecut-bias=0.05 / hist-threshold=0.01 / no-opt-cu-delta-qp / no-aq-motion / no-hdr10 / no-hdr10-opt / no-dhdr10-opt / no-idr-recovery-sei / analysis-reuse-level=0 / analysis-save-reuse-level=0 / analysis-load-reuse-level=0 / scale-factor=0 / refine-intra=0 / refine-inter=0 / refine-mv=1 / refine-ctu-distortion=0 / no-limit-sao / ctu-info=0 / no-lowpass-dct / refine-analysis-type=0 / copy-pic=1 / max-ausize-factor=1.0 / no-dynamic-refine / no-single-sei / no-hevc-aq / no-svt / no-field / qp-adaptation-range=1.00 / no-scenecut-aware-qpconformance-window-offsets / right=0 / bottom=0
Encoded date : UTC 2021-11-24 13:58:15
Tagged date : UTC 2021-11-24 13:58:15
Codec configuration box : hvcC

Audio
ID : 2
Format : AAC LC
Format/Info : Advanced Audio Codec Low Complexity
Codec ID : mp4a-40-2
Duration : 2 h 12 min
Bit rate mode : Constant
Bit rate : 224 kb/s
Channel(s) : 6 channels
Channel layout : C L R Ls Rs LFE
Sampling rate : 48.0 kHz
Frame rate : 46.875 FPS (1024 SPF)
Compression mode : Lossy
Stream size : 213 MiB (10%)
Language : English
Default : Yes
Alternate group : 1
Encoded date : UTC 2021-11-24 13:58:15
Tagged date : UTC 2021-11-24 13:58:15

Related Torrents

Trackers

Tracker name
http://tracker.trackerfix.com:80/announce
udp://9.rarbg.me:2820/announce
udp://9.rarbg.to:2760/announce
udp://tracker.thinelephant.org:12800/announce
udp://tracker.fatkhoala.org:13800/announce
udp://tracker.zer0day.to:1337/announce
udp://tracker.leechers-paradise.org:6969/announce
udp://coppersurfer.tk:6969/announce
Torrent hash: 70599AE55D17B2D855D40FB127FE39E4C5F97FAE

0 Comment

Login to post comments