Brothers by Blood (2020) [Hindi Dub] WEB-DLRip Saicord


0

0
seeders: 2 leechers: 4 updated: 5 days ago
Added 5 days ago by Saicord 8.70k in Movies - Dubbed Movies
Downloaded 1 time.
Brothers by Blood (2020) [Hindi Dub] WEB-DLRip Saicord
  • Release date: 26 May 2021
  • Release year: 2021
  • Runtime: 105 mintues
  • Country: France, Belgium, Netherlands, United States
  • Keywords: betrayal, cousin cousin relationship, criminal family, irish mob, philadelphia mob
Plot:
A tale of family, friendships and betrayal in the violent world of the Philadelphia mob.

Available in versions:
Other 480p 720p 1080p

Files

Brothers by Blood (2020) [Hindi Dub] 400p WEB-DLRip Saicord.mkv (896.63 MB)
Brothers by Blood (2020) [Hindi Dub] 400p WEB-DLRip Saicord.mkv 896.63 MB

Description

Brothers by Blood (2020) [Hindi Dub] WEB-DLRip Saicord



https://www.imdb.com/title/tt8368294

https://youtu.be/PWrnrPTaVkM






Video
ID                          : 1
Format                      : AVC
Format/Info                : Advanced Video Codec
Format profile              : [email protected]
Format settings            : 3 Ref Frames
Format settings, CABAC      : No
Format settings, Reference  : 3 frames
Codec ID                    : V_MPEG4/ISO/AVC
Duration                    : 1 h 31 min
Bit rate                    : 1 173 kb/s
Width                      : 720 pixels
Height                      : 408 pixels
Display aspect ratio        : 16:9
Frame rate mode            : Constant
Frame rate                  : 23.976 (24000/1001) FPS
Color space                : YUV
Chroma subsampling          : 4:2:0
Bit depth                  : 8 bits
Scan type                  : Progressive
Bits/(Pixel*Frame)          : 0.167
Stream size                : 772 MiB (86%)
Default                    : Yes
Forced                      : No

Audio
ID                          : 2
Format                      : AAC LC
Format/Info                : Advanced Audio Codec Low Complexity
Codec ID                    : A_AAC-2
Duration                    : 1 h 31 min
Bit rate                    : 188 kb/s
Channel(s)                  : 2 channels
Channel layout              : L R
Sampling rate              : 48.0 kHz
Frame rate                  : 46.875 FPS (1024 SPF)
Compression mode            : Lossy
Stream size                : 124 MiB (14%)
Language                    : Hindi
Default                    : No
Forced                      : No

Related Torrents

Trackers

Tracker name
udp://opentor.org:2710/announce
udp://tracker.torrent.eu.org:451/announce
udp://tracker.cyberia.is:6969/announce
udp://exodus.desync.com:6969/announce
udp://tracker.moeking.me:6969/announce
udp://tracker.opentrackr.org:1337/announce
udp://tracker.tiny-vps.com:6969/announce
udp://open.stealth.si:80/announce
udp://tracker.iamhansen.xyz:2000/announce
udp://tracker.theoks.net:6969/announce
udp://retracker.lanta-net.ru:2710/announce
udp://open.demonii.si:1337/announce
udp://tracker.uw0.xyz:6969/announce
udp://ipv4.tracker.harry.lu:80/announce
udp://tracker.coppersurfer.tk:6969/announce
Torrent hash: D864756D4972E29AE3AC044846148D055ABFCCEC

0 Comment

Login to post comments