Bonobo (2014) [Hindi Dub] 1080p WEB-DLRip Saicord


0

0
seeders: 1 leechers: 6 updated: 5 days ago
Added 5 days ago by Saicord 8.70k in Movies - Highres Movies
Downloaded 7 times.
Bonobo (2014) [Hindi Dub] 1080p WEB-DLRip Saicord
  • Release date: 21 Jun 2018
  • Release year: 2018
  • Runtime: 83 mintues
  • Country: United Kingdom
  • Keywords: nudity, male nudity, male frontal nudity, commune, pubic hair
Plot:
Judith, an uptight widow, is appalled when her daughter Lily quits law school to move into a commune of hippie-misfits who live according to the behavioural principles of the bonobo monkey, a species famous for its 'make love not war' philosophy. Anita, the eccentric group leader, claims that she can resolve the conflict between mother & daughter if Judith will spend a day among the commune and submit to its principles. But with mother and daughter both hell-bent on proving each other wrong, Anita's methods must now be put to the test as never before.

Available in versions:
Other WEBRip 480p 720p 1080p

Files

Bonobo (2014) [Hindi Dub] 1080p WEB-DLRip Saicord.mp4 (2.43 GB)
Bonobo (2014) [Hindi Dub] 1080p WEB-DLRip Saicord.mp4 2.43 GB

Description

Bonobo (2014) [Hindi Dub] 1080p WEB-DLRip Saicord



https://www.imdb.com/title/tt2712990/

https://youtu.be/q7zRfdsvjio






Video
ID                          : 1
Format                      : AVC
Format/Info                : Advanced Video Codec
Format profile              : [email protected]
Format settings            : 1 Ref Frames
Format settings, CABAC      : No
Format settings, Reference  : 1 frame
Format settings, GOP        : M=1, N=24
Codec ID                    : avc1
Codec ID/Info              : Advanced Video Coding
Duration                    : 1 h 24 min
Bit rate                    : 3 927 kb/s
Width                      : 1 920 pixels
Height                      : 1 080 pixels
Display aspect ratio        : 16:9
Frame rate mode            : Constant
Frame rate                  : 23.976 (24000/1001) FPS
Color space                : YUV
Chroma subsampling          : 4:2:0
Bit depth                  : 8 bits
Scan type                  : Progressive
Bits/(Pixel*Frame)          : 0.079
Stream size                : 2.32 GiB (95%)
Encoded date                : UTC 2021-12-13 11:57:51
Tagged date                : UTC 2021-12-13 11:57:51
Codec configuration box    : avcC

Audio
ID                          : 2
Format                      : AAC LC
Format/Info                : Advanced Audio Codec Low Complexity
Codec ID                    : mp4a-40-2
Duration                    : 1 h 24 min
Bit rate mode              : Variable
Bit rate                    : 188 kb/s
Maximum bit rate            : 195 kb/s
Channel(s)                  : 2 channels
Channel layout              : L R
Sampling rate              : 48.0 kHz
Frame rate                  : 46.875 FPS (1024 SPF)
Compression mode            : Lossy
Stream size                : 114 MiB (5%)
Encoded date                : UTC 2021-12-13 11:57:51
Tagged date                : UTC 2021-12-13 11:57:51

Related Torrents

Trackers

Tracker name
udp://opentor.org:2710/announce
udp://tracker.torrent.eu.org:451/announce
udp://tracker.cyberia.is:6969/announce
udp://exodus.desync.com:6969/announce
udp://tracker.moeking.me:6969/announce
udp://tracker.opentrackr.org:1337/announce
udp://tracker.tiny-vps.com:6969/announce
udp://open.stealth.si:80/announce
udp://tracker.iamhansen.xyz:2000/announce
udp://tracker.theoks.net:6969/announce
udp://retracker.lanta-net.ru:2710/announce
udp://open.demonii.si:1337/announce
udp://tracker.uw0.xyz:6969/announce
udp://ipv4.tracker.harry.lu:80/announce
udp://tracker.coppersurfer.tk:6969/announce
Torrent hash: A764898F433BF24D0E39FA90677F02DDF0727156

0 Comment

Login to post comments