Blithe Spirit (2020) [Hindi Dub] 720p WEB-DLRip Saicord


0

0
seeders: 1 leechers: 6 updated: 5 days ago
Added 5 days ago by Saicord 8.70k in Movies - Highres Movies
Downloaded 1 time.
Blithe Spirit (2020) [Hindi Dub] 720p WEB-DLRip Saicord
  • Release date: 19 Feb 2021
  • Release year: 2021
  • Runtime: 99 mintues
  • Country: United Kingdom, United States, Australia
  • Keywords: love, boots, knee high boots, lightning, thunder
Plot:
A spiritualist medium holds a seance for a writer suffering from writer's block but accidentally summons the spirit of his deceased first wife, which leads to an increasingly complex love triangle with his current wife of five years.

Available in versions:
Other WEB-DL x264 x265 480p 720p 1080p

Files

Blithe Spirit (2020) [Hindi Dub] 720p WEB-DLRip Saicord.mkv (1.52 GB)
Blithe Spirit (2020) [Hindi Dub] 720p WEB-DLRip Saicord.mkv 1.52 GB

Description

Blithe Spirit (2020) [Hindi Dub] 720p WEB-DLRip Saicord



https://www.imdb.com/title/tt10334148

https://youtu.be/ug9dTP4KlDg






Video
ID                          : 1
Format                      : AVC
Format/Info                : Advanced Video Codec
Format profile              : [email protected]
Format settings            : 3 Ref Frames
Format settings, CABAC      : No
Format settings, Reference  : 3 frames
Codec ID                    : V_MPEG4/ISO/AVC
Duration                    : 1 h 40 min
Bit rate                    : 1 969 kb/s
Width                      : 1 280 pixels
Height                      : 720 pixels
Display aspect ratio        : 16:9
Frame rate mode            : Constant
Frame rate                  : 23.976 (24000/1001) FPS
Color space                : YUV
Chroma subsampling          : 4:2:0
Bit depth                  : 8 bits
Scan type                  : Progressive
Bits/(Pixel*Frame)          : 0.089
Stream size                : 1.38 GiB (91%)
Default                    : Yes
Forced                      : No

Audio
ID                          : 2
Format                      : AAC LC
Format/Info                : Advanced Audio Codec Low Complexity
Codec ID                    : A_AAC-2
Duration                    : 1 h 40 min
Bit rate                    : 188 kb/s
Channel(s)                  : 2 channels
Channel layout              : L R
Sampling rate              : 48.0 kHz
Frame rate                  : 46.875 FPS (1024 SPF)
Compression mode            : Lossy
Stream size                : 135 MiB (9%)
Language                    : Hindi
Default                    : No
Forced                      : No

Related Torrents

Trackers

Tracker name
udp://opentor.org:2710/announce
udp://tracker.torrent.eu.org:451/announce
udp://tracker.cyberia.is:6969/announce
udp://exodus.desync.com:6969/announce
udp://tracker.moeking.me:6969/announce
udp://tracker.opentrackr.org:1337/announce
udp://tracker.tiny-vps.com:6969/announce
udp://open.stealth.si:80/announce
udp://tracker.iamhansen.xyz:2000/announce
udp://tracker.theoks.net:6969/announce
udp://retracker.lanta-net.ru:2710/announce
udp://open.demonii.si:1337/announce
udp://tracker.uw0.xyz:6969/announce
udp://ipv4.tracker.harry.lu:80/announce
udp://tracker.coppersurfer.tk:6969/announce
Torrent hash: 7EC16E65912FA90113350FB46065609BB6732052

0 Comment

Login to post comments