Blind (2014) [Hindi Dub] 1080p WEB-DLRip Saicord


0

0
seeders: 1 leechers: 6 updated: 5 days ago
Added 5 days ago by Saicord 8.70k in Movies - Highres Movies
Downloaded 1 time.
Blind (2014) [Hindi Dub] 1080p WEB-DLRip Saicord
  • Release date: 4 Sep 2015
  • Release year: 2015
  • Runtime: 96 mintues
  • Country: Norway, Netherlands
  • Keywords: female nudity, trying to hide blindness, pornography, fantasy versus reality, blind woman
Plot:
Having recently lost her sight, Ingrid retreats to the safety of her home - a place where she can feel in control, alone with her husband and her thoughts. But Ingrid's real problems lie within, not beyond the walls of her apartment, and her deepest fears and repressed fantasies soon take over.

Available in versions:
Other x264 x265 480p 720p 1080p

Files

Blind (2014) [Hindi Dub] 1080p WEB-DLRip Saicord.mp4 (2.77 GB)
Blind (2014) [Hindi Dub] 1080p WEB-DLRip Saicord.mp4 2.77 GB

Description

Blind (2014) [Hindi Dub] 1080p WEB-DLRip Saicord



https://www.imdb.com/title/tt2616810

https://youtu.be/dKoZE_tU9as






Video
ID                          : 1
Format                      : AVC
Format/Info                : Advanced Video Codec
Format profile              : [email protected]
Format settings            : 1 Ref Frames
Format settings, CABAC      : No
Format settings, Reference  : 1 frame
Format settings, GOP        : M=1, N=24
Codec ID                    : avc1
Codec ID/Info              : Advanced Video Coding
Duration                    : 1 h 37 min
Bit rate                    : 3 868 kb/s
Width                      : 1 920 pixels
Height                      : 1 080 pixels
Display aspect ratio        : 16:9
Frame rate mode            : Constant
Frame rate                  : 23.976 (24000/1001) FPS
Color space                : YUV
Chroma subsampling          : 4:2:0
Bit depth                  : 8 bits
Scan type                  : Progressive
Bits/(Pixel*Frame)          : 0.078
Stream size                : 2.64 GiB
Encoded date                : UTC 2021-12-13 11:44:10
Tagged date                : UTC 2021-12-13 11:44:10
Codec configuration box    : avcC

Audio
ID                          : 2
Format                      : AAC LC
Format/Info                : Advanced Audio Codec Low Complexity
Codec ID                    : mp4a-40-2
Duration                    : 1 h 37 min
Bit rate mode              : Variable
Bit rate                    : 188 kb/s
Maximum bit rate            : 195 kb/s
Channel(s)                  : 2 channels
Channel layout              : L R
Sampling rate              : 48.0 kHz
Frame rate                  : 46.875 FPS (1024 SPF)
Compression mode            : Lossy
Stream size                : 131 MiB (18%)
Encoded date                : UTC 2021-12-13 11:44:10
Tagged date                : UTC 2021-12-13 11:44:10

Related Torrents

Trackers

Tracker name
udp://opentor.org:2710/announce
udp://tracker.torrent.eu.org:451/announce
udp://tracker.cyberia.is:6969/announce
udp://exodus.desync.com:6969/announce
udp://tracker.moeking.me:6969/announce
udp://tracker.opentrackr.org:1337/announce
udp://tracker.tiny-vps.com:6969/announce
udp://open.stealth.si:80/announce
udp://tracker.iamhansen.xyz:2000/announce
udp://tracker.theoks.net:6969/announce
udp://retracker.lanta-net.ru:2710/announce
udp://open.demonii.si:1337/announce
udp://tracker.uw0.xyz:6969/announce
udp://ipv4.tracker.harry.lu:80/announce
udp://tracker.coppersurfer.tk:6969/announce
Torrent hash: 20B76C4C98D96B5A25834DA9DD86CF87D39DE2F6

0 Comment

Login to post comments