Black And White And Sex (2012) [Hindi Dub] WEB-DLRip Saicord


0

0
seeders: 3 leechers: 4 updated: 5 days ago
Added 5 days ago by Saicord 8.70k in Movies - Dubbed Movies
Downloaded 5 times.
Black And White And Sex (2012) [Hindi Dub] WEB-DLRip Saicord
  • Release date: 4 Sep 2015
  • Release year: 2015
  • Runtime: 96 mintues
  • Country: Norway, Netherlands
  • Keywords: female nudity, trying to hide blindness, pornography, fantasy versus reality, blind woman
Plot:
Having recently lost her sight, Ingrid retreats to the safety of her home - a place where she can feel in control, alone with her husband and her thoughts. But Ingrid's real problems lie within, not beyond the walls of her apartment, and her deepest fears and repressed fantasies soon take over.

Available in versions:
Other x264 x265 480p 720p 1080p

Files

Black And White And Sex (2012) [Hindi Dub] 400p WEB-DLRip Saicord.mkv (938.88 MB)
Black And White And Sex (2012) [Hindi Dub] 400p WEB-DLRip Saicord.mkv 938.88 MB

Description

Black And White And Sex (2012) [Hindi Dub] WEB-DLRip Saicord



https://www.imdb.com/title/tt9027802

https://youtu.be/PrmVXMff5es






Video
ID                          : 1
Format                      : AVC
Format/Info                : Advanced Video Codec
Format profile              : [email protected]
Format settings            : 3 Ref Frames
Format settings, CABAC      : No
Format settings, Reference  : 3 frames
Codec ID                    : V_MPEG4/ISO/AVC
Duration                    : 1 h 35 min
Bit rate                    : 1 182 kb/s
Width                      : 720 pixels
Height                      : 408 pixels
Display aspect ratio        : 16:9
Frame rate mode            : Constant
Frame rate                  : 23.976 (24000/1001) FPS
Color space                : YUV
Chroma subsampling          : 4:2:0
Bit depth                  : 8 bits
Scan type                  : Progressive
Bits/(Pixel*Frame)          : 0.168
Stream size                : 809 MiB (86%)
Default                    : Yes
Forced                      : No

Audio
ID                          : 2
Format                      : AAC LC
Format/Info                : Advanced Audio Codec Low Complexity
Codec ID                    : A_AAC-2
Duration                    : 1 h 35 min
Bit rate                    : 188 kb/s
Channel(s)                  : 2 channels
Channel layout              : L R
Sampling rate              : 48.0 kHz
Frame rate                  : 46.875 FPS (1024 SPF)
Compression mode            : Lossy
Stream size                : 128 MiB (14%)
Language                    : Hindi
Default                    : No
Forced                      : No

Related Torrents

Trackers

Tracker name
udp://opentor.org:2710/announce
udp://tracker.torrent.eu.org:451/announce
udp://tracker.cyberia.is:6969/announce
udp://exodus.desync.com:6969/announce
udp://tracker.moeking.me:6969/announce
udp://tracker.opentrackr.org:1337/announce
udp://tracker.tiny-vps.com:6969/announce
udp://open.stealth.si:80/announce
udp://tracker.iamhansen.xyz:2000/announce
udp://tracker.theoks.net:6969/announce
udp://retracker.lanta-net.ru:2710/announce
udp://open.demonii.si:1337/announce
udp://tracker.uw0.xyz:6969/announce
udp://ipv4.tracker.harry.lu:80/announce
udp://tracker.coppersurfer.tk:6969/announce
Torrent hash: 5F29A34C41FA86802BA196AEF5A8589D0E93F11B

0 Comment

Login to post comments