Black And White And Sex (2012) [Hindi Dub] 1080p WEB-DLRip Saicord


0

0
seeders: 2 leechers: 4 updated: 5 days ago
Added 5 days ago by Saicord 8.70k in Movies - Highres Movies
Downloaded 3 times.
Black And White And Sex (2012) [Hindi Dub] 1080p WEB-DLRip Saicord
  • Release date: 19 Feb 2021
  • Release year: 2021
  • Runtime: 99 mintues
  • Country: United Kingdom, United States, Australia
  • Keywords: love, boots, knee high boots, lightning, thunder
Plot:
A spiritualist medium holds a seance for a writer suffering from writer's block but accidentally summons the spirit of his deceased first wife, which leads to an increasingly complex love triangle with his current wife of five years.

Available in versions:
Other WEB-DL x264 x265 480p 720p 1080p

Files

Black And White And Sex (2012) [Hindi Dub] 1080p WEB-DLRip Saicord.mp4 (2.71 GB)
Black And White And Sex (2012) [Hindi Dub] 1080p WEB-DLRip Saicord.mp4 2.71 GB

Description

Black And White And Sex (2012) [Hindi Dub] 1080p WEB-DLRip Saicord



https://www.imdb.com/title/tt9027802

https://youtu.be/PrmVXMff5es






Video
ID                          : 1
Format                      : AVC
Format/Info                : Advanced Video Codec
Format profile              : [email protected]
Format settings            : 1 Ref Frames
Format settings, CABAC      : No
Format settings, Reference  : 1 frame
Format settings, GOP        : M=1, N=24
Codec ID                    : avc1
Codec ID/Info              : Advanced Video Coding
Duration                    : 1 h 35 min
Bit rate                    : 3 859 kb/s
Width                      : 1 920 pixels
Height                      : 1 080 pixels
Display aspect ratio        : 16:9
Frame rate mode            : Constant
Frame rate                  : 23.976 (24000/1001) FPS
Color space                : YUV
Chroma subsampling          : 4:2:0
Bit depth                  : 8 bits
Scan type                  : Progressive
Bits/(Pixel*Frame)          : 0.078
Stream size                : 2.58 GiB
Encoded date                : UTC 2021-12-13 11:37:30
Tagged date                : UTC 2021-12-13 11:37:30
Codec configuration box    : avcC

Audio
ID                          : 2
Format                      : AAC LC
Format/Info                : Advanced Audio Codec Low Complexity
Codec ID                    : mp4a-40-2
Duration                    : 1 h 35 min
Bit rate mode              : Variable
Bit rate                    : 188 kb/s
Maximum bit rate            : 195 kb/s
Channel(s)                  : 2 channels
Channel layout              : L R
Sampling rate              : 48.0 kHz
Frame rate                  : 46.875 FPS (1024 SPF)
Compression mode            : Lossy
Stream size                : 128 MiB (10%)
Encoded date                : UTC 2021-12-13 11:37:30
Tagged date                : UTC 2021-12-13 11:37:30

Related Torrents

Trackers

Tracker name
udp://opentor.org:2710/announce
udp://tracker.torrent.eu.org:451/announce
udp://tracker.cyberia.is:6969/announce
udp://exodus.desync.com:6969/announce
udp://tracker.moeking.me:6969/announce
udp://tracker.opentrackr.org:1337/announce
udp://tracker.tiny-vps.com:6969/announce
udp://open.stealth.si:80/announce
udp://tracker.iamhansen.xyz:2000/announce
udp://tracker.theoks.net:6969/announce
udp://retracker.lanta-net.ru:2710/announce
udp://open.demonii.si:1337/announce
udp://tracker.uw0.xyz:6969/announce
udp://ipv4.tracker.harry.lu:80/announce
udp://tracker.coppersurfer.tk:6969/announce
Torrent hash: ECB11F1AAA8E34A708C8EA1B8E180029EF84D330

0 Comment

Login to post comments