Benedetta 2021 FRENCH 1080p BluRay x264 DDP5 1-NOGRP


0

0
seeders: 0 leechers: 0 updated: 1 week ago
Added 2 weeks ago in Movies - Highres Movies
Downloaded 7 times.
Benedetta 2021 FRENCH 1080p BluRay x264 DDP5 1-NOGRP
  • Release date: 3 Dec 2021
  • Release year: 2021
  • Runtime: 131 mintues
  • Country: France, Belgium, Netherlands
  • Keywords: nun, convent, catholic nun, catholicism, crucifix
Plot:
A 17th-century nun in Italy suffers from disturbing religious and erotic visions. She is assisted by a companion, and the relationship between the two women develops into a romantic love affair.

Available in versions:
720p 1080p

Files

Benedetta.2021.FRENCH.1080p.BluRay.x264.DDP5.1-NOGRP.mkv (14.6 GB)
Benedetta.2021.FRENCH.1080p.BluRay.x264.DDP5.1-NOGRP.mkv 14.6 GB
RARBG.txt 0 B

Description

Screens... (click to enlarge):









Infolink -> https://www.imdb.com/title/tt6823148/

Mediainfo


Quote:

Video
ID : 1
Format : AVC
Format/Info : Advanced Video Codec
Format profile : [email protected]
Format settings : CABAC / 5 Ref Frames
Format settings, CABAC : Yes
Format settings, Reference frames : 5 frames
Codec ID : V_MPEG4/ISO/AVC
Duration : 2 h 11 min
Bit rate : 14.9 Mb/s
Width : 1 920 pixels
Height : 804 pixels
Display aspect ratio : 2.40:1
Frame rate mode : Constant
Frame rate : 23.976 (24000/1001) FPS
Color space : YUV
Chroma subsampling : 4:2:0
Bit depth : 8 bits
Scan type : Progressive
Bits/(Pixel*Frame) : 0.402
Stream size : 13.7 GiB (94%)
Writing library : x264 core 164 r3075+55M
Encoding settings : cabac=1 / ref=5 / deblock=1:-3:-3 / analyse=0x3:0x113 / me=umh / subme=11 / psy=1 / fade_compensate=0.00 / psy_rd=1.05:0.00 / mixed_ref=1 / me_range=48 / chroma_me=1 / trellis=2 / 8x8dct=1 / cqm=0 / deadzone=21,11 / fast_pskip=0 / chroma_qp_offset=-2 / threads=25 / lookahead_threads=4 / sliced_threads=0 / nr=0 / decimate=0 / interlaced=0 / bluray_compat=0 / constrained_intra=0 / fgo=0 / bframes=9 / b_pyramid=2 / b_adapt=2 / b_bias=0 / direct=3 / weightb=1 / open_gop=0 / weightp=2 / keyint=250 / keyint_min=23 / scenecut=40 / intra_refresh=0 / rc_lookahead=60 / rc=crf / mbtree=0 / crf=17.7000 / qcomp=0.60 / qpmin=0:0:0 / qpmax=69:69:69 / qpstep=4 / vbv_maxrate=62500 / vbv_bufsize=78125 / crf_max=0.0 / nal_hrd=none / filler=0 / ip_ratio=1.30 / pb_ratio=1.20 / aq=3:0.80 / aq-sensitivity=10.00 / aq-factor=1.00:1.00:1.00 / aq2=0 / aq3=0
Language : English
Default : Yes
Forced : No
Color range : Limited
Color primaries : BT.709
Transfer characteristics : BT.709
Matrix coefficients : BT.709

Audio
ID : 2
Format : E-AC-3
Format/Info : Enhanced AC-3
Commercial name : Dolby Digital Plus
Codec ID : A_EAC3
Duration : 2 h 11 min
Bit rate mode : Constant
Bit rate : 1 024 kb/s
Channel(s) : 6 channels
Channel layout : L R C LFE Ls Rs
Sampling rate : 48.0 kHz
Frame rate : 31.250 FPS (1536 SPF)
Compression mode : Lossy
Stream size : 961 MiB (6%)
Title : E-AC3 DD+5.1 1024kbs
Language : French
Service kind : Complete Main
Default : Yes
Forced : No

Text #1
ID : 3
Format : UTF-8
Codec ID : S_TEXT/UTF8
Codec ID/Info : UTF-8 Plain Text
Duration : 2 h 6 min
Bit rate : 37 b/s
Count of elements : 1227
Stream size : 34.8 KiB (0%)
Title : Full
Language : English
Default : Yes
Forced : No

Text #2
ID : 4
Format : UTF-8
Codec ID : S_TEXT/UTF8
Codec ID/Info : UTF-8 Plain Text
Duration : 2 h 2 min
Bit rate : 43 b/s
Count of elements : 1204
Stream size : 38.5 KiB (0%)
Title : Full
Language : French
Default : No
Forced : No

Text #3
ID : 5
Format : UTF-8
Codec ID : S_TEXT/UTF8
Codec ID/Info : UTF-8 Plain Text
Duration : 2 h 6 min
Bit rate : 62 b/s
Count of elements : 1957
Stream size : 57.3 KiB (0%)
Title : SDH
Language : French
Default : No
Forced : No

Menu
00:00:00.000 : en:Chapter 01
00:11:27.061 : en:Chapter 02
00:24:16.121 : en:Chapter 03
00:33:50.487 : en:Chapter 04
00:44:56.235 : en:Chapter 05
00:56:07.364 : en:Chapter 06
01:07:42.600 : en:Chapter 07
01:22:42.749 : en:Chapter 08
01:32:29.836 : en:Chapter 09
01:43:45.010 : en:Chapter 10
01:54:00.375 : en:Chapter 11
02:06:00.428 : en:Chapter 12

Related Torrents

Trackers

Tracker name
http://tracker.trackerfix.com:80/announce
udp://9.rarbg.me:2770/announce
udp://9.rarbg.to:2760/announce
udp://tracker.thinelephant.org:12770/announce
udp://tracker.slowcheetah.org:14780/announce
udp://tracker.zer0day.to:1337/announce
udp://tracker.leechers-paradise.org:6969/announce
udp://coppersurfer.tk:6969/announce
Torrent hash: DBB9E1D9BABCEEBB84D47E62CA5A667ED2F6B882

0 Comment

Login to post comments